当前位置: 首页 >> 欧美电影 >> 辣手摧花[HDR版本][简繁英字幕].Shadow.of.a.Doubt.1943.BluRay.2160p.DTS-HD.MA.2.0.HDR.x265.10bit-CTRLHD 22.29GB >> 正文

辣手摧花[HDR版本][简繁英字幕].Shadow.of.a.Doubt.1943.BluRay.2160p.DTS-HD.MA.2.0.HDR.x265.10bit-CTRLHD 22.29GB

2022年05月09日 22:15:47     电影发布:来源于网络     电影分类:欧美电影     评论(0)    

◎译 名 辣手摧花 / 心声疑影 / 疑影

◎片 名 Shadow of a Doubt

◎年 代 1943

◎产 地 美国

◎类 别 剧情 / 悬疑 / 犯罪

◎语 言 英语

◎上映日期 1943-01-12(美国)

◎IMDb链接 https://www.imdb.com/title/tt0036342/

◎豆瓣评分 7.6/10 (23682人评价)

◎豆瓣链接 https://movie.douban.com/subject/1293817/

◎片 长 108 分钟

◎导 演 阿尔弗雷德·希区柯克 Alfred Hitchcock (id:1025185)

◎编 剧 桑顿·怀尔德 Thornton Wilder (id:1000902)

萨莉·本森 Sally Benson (id:1051886)

艾玛·雷维尔 Alma Reville (id:1023048)

戈登·麦克唐纳 Gordon McDonell (id:1291534)

◎演 员 特雷莎·怀特 Teresa Wright (id:1040774)

约瑟夫·科顿 Joseph Cotten (id:1055438)

麦克唐纳·凯瑞 Macdonald Carey (id:1032326)

亨利·崔佛斯 Henry Travers (id:1153214)

帕特里夏·科林奇 Patricia Collinge (id:1069643)

休姆·克罗宁 Hume Cronyn (id:1010654)

华莱士·福特 Wallace Ford (id:1082523)

艾德娜梅沃娜考特 Edna May Wonacott (id:1168317)

查尔斯·贝茨 Charles Bates (id:1421855)

欧文·培根 Irving Bacon (id:1058430)

克拉伦斯·缪斯 Clarence Muse (id:1028065)

弗吉尼亚·布里萨克 Virginia Brissac (id:1075116)

爱德华·菲尔丁 Edward Fielding (id:1084855)

阿尔弗雷德·希区柯克 Alfred Hitchcock (id:1025185)

鲁思李 Ruth Lee (id:1109038)

约翰·麦圭尔 John McGuire (id:1120469)

雪莉·米尔斯 Shirley Mills (id:1115426)

格兰丁·罗德 Grandon Rhodes (id:1143663)

Janet Shaw Janet Shaw (id:1142298)

Frances Carson Frances Carson (id:1072779)

Earle S. Dewey Earle S. Dewey (id:1083038)

萨拉·爱德华兹 Sarah Edwards (id:1084633)

Vaughan Glaser Vaughan Glaser (id:1097075)

Shep Houghton Shep Houghton (id:1097696)

Eily Malyon Eily Malyon (id:1115739)

Constance Purdy Constance Purdy (id:1145290)

Isabel Randolph Isabel Randolph (id:1142465)

Edwin Stanley Edwin Stanley (id:1154771)

米内尔娃·尤雷卡尔 Minerva Urecal (id:1150605)

◎简 介

小镇沉闷的空气令受过高等教育的Charlie(Teresa Wright)十分压抑,她渴望在外谋大事、自己喜爱和崇敬的Uncle Charlie(Joseph Cotten)能突然出现,为自己的生活注入一缕新风。Charlie欲发电报邀请舅舅来做客时,竟先收到他发来的要来的报文,惊喜之外,她对舅舅的爱又加深一层。

Uncle Charlie的到来令Charlie及父母非常兴奋,但酷爱读书的妹妹无动于衷。不久Charlie如沐春风变作无忧无虑的少女。两个自称报社记者的陌生人有心将Charlie一家当作典型美国家庭采访,Uncle Charlie为此事大发雷霆相当失态,令Charlie和母亲大为不解。而同其中之一Herbie Hawkins(Hume Cronyn)交谈中,Charlie震惊地听闻有关舅舅的骇人秘密。

◎获奖情况 (共1项)

第16届奥斯卡金像奖 (1944)

最佳原创故事(提名)

└──戈登·麦克唐纳 (id:1291534)

  1. ##### MediaInfo ######

  2. General

  3. Unique ID : 199620322964695037922316198186481509047 (0x962D79CACA81A8AF84911DFB8A2262B7)

  4. Complete name : Shadow.of.a.Doubt.1943.BluRay.2160p.DTS-HD.MA.2.0.HDR.x265.10bit-CTRLHD.mkv

  5. Format : Matroska

  6. Format version : Version 4

  7. File size : 22.3 GiB

  8. Duration : 1 h 47 min

  9. Overall bit rate mode : Variable

  10. Overall bit rate : 29.6 Mb/s

  11. Movie name : Shadow of a Doubt

  12. Encoded date : UTC 2022-05-09 00:40:50

  13. Writing application : mkvmerge v63.0.0 ('Everything') 64-bit

  14. Writing library : libebml v1.4.2 + libmatroska v1.6.4

  15. Cover : Yes

  16. Attachments : cover.jpg

  17. Video

  18. ID : 1

  19. Format : HEVC

  20. Format/Info : High Efficiency Video Coding

  21. Format profile : Main [email protected]@High

  22. HDR format : SMPTE ST 2086, HDR10 compatible

  23. Codec ID : V_MPEGH/ISO/HEVC

  24. Duration : 1 h 47 min

  25. Bit rate : 27.7 Mb/s

  26. Width : 2 914 pixels

  27. Height : 2 160 pixels

  28. Display aspect ratio : 4:3

  29. Frame rate mode : Constant

  30. Frame rate : 23.976 (24000/1001/53354) FPS

  31. Color space : YUV

  32. Chroma subsampling : 4:2:0 (Type 2)

  33. Bit depth : 10 bits

  34. Bits/(Pixel*Frame) : 0.184

  35. Stream size : 20.9 GiB (94%)

  36. Writing library : x265 3.5+2-g2b25c9ba0+87:[Windows][clang 12.0.1][64 bit] Kasumi 10bit

  37. Encoding settings : rc=crf / crf=13.5000 / qcomp=0.60 / qpstep=4 / stats-write=0 / stats-read=0 / no-lossless / no-cu-lossless / aq-mode=1 / aq-strength=1.00 / cbqpoffs=0 / crqpoffs=0 / ipratio=1.40 / pbratio=1.30 / psy-rd=3.00 / psy-rdoq=4.80 / deblock=0:0 / ref=6 / limit-refs=1 / no-limit-modes / bframes=14 / b-adapt=2 / bframe-bias=0 / b-pyramid / b-intra / weightp / weightb / min-keyint=23 / max-keyint=250 / rc-lookahead=75 / gop-lookahead=0 / NTMzNTQ=uuDQuD2mJt9fsCf / scenecut=40 / hist-scenecut=0 / radl=0 / max-cu-size=64 / min-cu-size=8 / me=3 / subme=7 / merange=64 / rdoq-level=2 / rd=4 / rdpenalty=2 / dynamic-rd=0.00 / no-rd-refine / ----- / cutree / no-sao / no-rect / no-amp / no-open-gop / wpp / no-pmode / no-pme / no-psnr / no-ssim / nr-intra=0 / nr-inter=0 / no-constrained-intra / no-strong-intra-smoothing / max-tu-size=32 / tu-inter-depth=1 / tu-intra-depth=1 / limit-tu=0 / qg-size=32 / qpmax=69 / qpmin=0 / ----- / cpuid=533541111039 / frame-threads=6 / numa-pools=64,64,0,0 / log-level=2 / input-csp=1 / input-res=2914x2160 / interlace=0 / level-idc=0 / high-tier=1 / uhd-bd=0 / no-allow-non-conformance / repeat-headers / no-aud / no-hrd / info / hash=0 / no-temporal-layers / lookahead-slices=8 / no-splice / no-intra-refresh / no-ssim-rd / signhide / no-tskip / max-merge=3 / temporal-mvp / no-frame-dup / no-hme / no-analyze-src-pics / no-sao-non-deblock / selective-sao=0 / early-skip / rskip / no-fast-intra / no-tskip-fast / no-splitrd-skip / zone-count=0 / no-strict-cbr / no-rc-grain / no-const-vbv / sar=0 / overscan=0 / videoformat=5 / range=0 / colorprim=9 / transfer=16 / colormatrix=9 / chromaloc=1 / chromaloc-top=2 / chromaloc-bottom=2 / display-window=0 / master-display=G(13250,34500)B(7500,3000)R(34000,16000)WP(15635,16450)L(10000000,50) / cll=965,45 / min-luma=0 / max-luma=1023 / log2-max-poc-lsb=8 / vui-timing-info / vui-hrd-info / slices=1 / no-opt-qp-pps / no-opt-ref-list-length-pps / no-multi-pass-opt-rps / scenecut-bias=0.05 / hist-threshold=0.03 / no-opt-cu-delta-qp / aq-motion / hdr10 / hdr10-opt / no-dhdr10-opt / no-idr-recovery-sei / analysis-reuse-level=0 / analysis-save-reuse-level=0 / analysis-load-reuse-level=0 / scale-factor=0 / refine-intra=0 / refine-inter=0 / refine-mv=1 / refine-ctu-distortion=0 / no-limit-sao / ctu-info=0 / no-lowpass-dct / refine-analysis-type=0 / copy-pic=1 / max-ausize-factor=1.0 / no-dynamic-refine / no-single-sei / no-hevc-aq / no-svt / no-field / qp-adaptation-range=1.00 / scenecut-aware-qp=0conformance-window-offsets / right=0 / bottom=0 / NTMzNTQ= / decoder-max-rate=0 / no-vbv-live-multi-pass

  38. Default : Yes

  39. Forced : No

  40. Color range : Limited

  41. Color primaries : BT.2020

  42. Transfer characteristics : PQ

  43. Matrix coefficients : BT.2020 non-constant

  44. Mastering display color primaries : Display P3

  45. Mastering display luminance : min: 0.0050 cd/m2, max: 1000 cd/m2

  46. Maximum Content Light Level : 965 cd/m2

  47. Maximum Frame-Average Light Level : 45 cd/m2

  48. Audio

  49. ID : 2

  50. ID in the original source medium : 4352 (0x1100)

  51. Format : DTS XLL

  52. Format/Info : Digital Theater Systems

  53. Commercial name : DTS-HD Master Audio

  54. Codec ID : A_DTS

  55. Duration : 1 h 47 min

  56. Bit rate mode : Variable

  57. Bit rate : 1 775 kb/s

  58. Channel(s) : 2 channels

  59. Channel layout : L R

  60. Sampling rate : 48.0 kHz

  61. Frame rate : 93.750 FPS (512 SPF)

  62. Bit depth : 24 bits

  63. Compression mode : Lossless

  64. Stream size : 1.34 GiB (6%)

  65. Language : English

  66. Default : Yes

  67. Forced : No

  68. Original source medium : Blu-ray

  69. Text #1

  70. ID : 3

  71. ID in the original source medium : 4768 (0x12A0)

  72. Format : PGS

  73. Muxing mode : zlib

  74. Codec ID : S_HDMV/PGS

  75. Codec ID/Info : Picture based subtitle format used on BDs/HD-DVDs

  76. Duration : 1 h 46 min

  77. Bit rate : 60.5 kb/s

  78. Count of elements : 3980

  79. Stream size : 46.3 MiB (0%)

  80. Language : English

  81. Default : Yes

  82. Forced : No

  83. Original source medium : Blu-ray

  84. Text #2

  85. ID : 4

  86. ID in the original source medium : 4779 (0x12AB)

  87. Format : PGS

  88. Muxing mode : zlib

  89. Codec ID : S_HDMV/PGS

  90. Codec ID/Info : Picture based subtitle format used on BDs/HD-DVDs

  91. Duration : 1 h 44 min

  92. Bit rate : 35.6 kb/s

  93. Count of elements : 2816

  94. Stream size : 26.7 MiB (0%)

  95. Title : chs

  96. Language : Chinese

  97. Default : Yes

  98. Forced : No

  99. Original source medium : Blu-ray

  100. Text #3

  101. ID : 5

  102. ID in the original source medium : 4780 (0x12AC)

  103. Format : PGS

  104. Muxing mode : zlib

  105. Codec ID : S_HDMV/PGS

  106. Codec ID/Info : Picture based subtitle format used on BDs/HD-DVDs

  107. Duration : 1 h 44 min

  108. Bit rate : 36.4 kb/s

  109. Count of elements : 2816

  110. Stream size : 27.3 MiB (0%)

  111. Title : cht

  112. Language : Chinese

  113. Default : Yes

  114. Forced : No

  115. Original source medium : Blu-ray

  116. Text #4

  117. ID : 6

  118. ID in the original source medium : 4781 (0x12AD)

  119. Format : PGS

  120. Muxing mode : zlib

  121. Codec ID : S_HDMV/PGS

  122. Codec ID/Info : Picture based subtitle format used on BDs/HD-DVDs

  123. Duration : 1 h 44 min

  124. Bit rate : 60.1 kb/s

  125. Count of elements : 2816

  126. Stream size : 45.1 MiB (0%)

  127. Title : chs&eng

  128. Language : Chinese

  129. Default : Yes

  130. Forced : No

  131. Original source medium : Blu-ray

  132. Text #5

  133. ID : 7

  134. ID in the original source medium : 4782 (0x12AE)

  135. Format : PGS

  136. Muxing mode : zlib

  137. Codec ID : S_HDMV/PGS

  138. Codec ID/Info : Picture based subtitle format used on BDs/HD-DVDs

  139. Duration : 1 h 44 min

  140. Bit rate : 60.9 kb/s

  141. Count of elements : 2816

  142. Stream size : 45.7 MiB (0%)

  143. Title : cht&eng

  144. Language : Chinese

  145. Default : Yes

  146. Forced : No

  147. Original source medium : Blu-ray

  148. Menu

  149. 00:00:00.000 : en:第 01 章

  150. 00:01:35.053 : en:第 02 章

  151. 00:07:11.013 : en:第 03 章

  152. 00:16:49.383 : en:第 04 章

  153. 00:21:01.843 : en:第 05 章

  154. 00:26:03.311 : en:第 06 章

  155. 00:30:10.809 : en:第 07 章

  156. 00:34:42.163 : en:第 08 章

  157. 00:39:59.563 : en:第 09 章

  158. 00:43:27.688 : en:第 10 章

  159. 00:51:57.948 : en:第 11 章

  160. 00:56:18.458 : en:第 12 章

  161. 01:10:16.837 : en:第 13 章

  162. 01:18:49.224 : en:第 14 章

  163. 01:30:00.728 : en:第 15 章

  164. 01:43:05.345 : en:第 16 章

  165. 01:46:03.857 : en:第 17 章

  166. 01:47:31.653 : en:第 18 章



文件下载


除非特别注明,本文『辣手摧花[HDR版本][简繁英字幕].Shadow.of.a.Doubt.1943.BluRay.2160p.DTS-HD.MA.2.0.HDR.x265.10bit-CTRLHD 22.29GB』来源于互联网机器人自动抓取,非本站原创。 浮游电影网不对本文拥有版权,如有侵犯,请联系邮箱:fuyouu#yandex.com[#换成@]投诉。我们会在15个工作日内删除。 但烦请转载时请标明出处:“本文转载于『浮游电影网』,原文地址:https://www.fuyouu.com/22036.html

评论吧骚年!

发表你的见解   

昵称*

E-mail*(建议输入,以便收到博主回复的提示邮件)

验证码*

您可以使用eMule或eMule Mod(Windows)、aMule(Win、Linux、Mac)等软件下载eD2k链接。。
eMule收藏集(.emulecollection)文件是您选中的所有链接的列表文件。eMule可以直接下载它们。
按住SHIFT键选择可以选中多个选择框。
可用文件名和大小选择器来选择文件。
文件名选择器帮您根据文件名称或后缀来选择文件。不分大小写。
符号使用:
和:空格( )、+
不包含:-
或:|
转义:一对英文引号("");
匹配开头:^
匹配结尾:$
例如:
选中所有名称中包含有“eMule”或“0.49c”字眼,但不包含有“exe”字眼的:emule|0.49c -exe
选中所有名称的开头是“eMule”,结尾是“0.49c”的:^emule 0.49c$
选中所有名称中带有“eMule 0.49c”的(必须是“eMule 0.49c”,中间没有别的字符,不能是“eMule fake 0.49c”),需要转义:"emule 0.49c"
大小选择器帮您根据文件大小选择文件。