当前位置: 首页 >> 欧美电影 >> 大巧局[HDR版本][简繁英字幕].Family.Plot.1976.BluRay.2160p.DTS-HD.MA.2.0.HDR.x265.10bit-CTRLHD 20.98GB >> 正文

大巧局[HDR版本][简繁英字幕].Family.Plot.1976.BluRay.2160p.DTS-HD.MA.2.0.HDR.x265.10bit-CTRLHD 20.98GB

2022年05月09日 22:13:37     电影发布:来源于网络     电影分类:欧美电影     评论(0)    

◎译 名 大巧局 / 家庭阴谋 / 奇案

◎片 名 Family Plot

◎年 代 1976

◎产 地 美国

◎类 别 喜剧 / 惊悚 / 犯罪

◎语 言 英语

◎上映日期 1976-04-09

◎IMDb链接 https://www.imdb.com/title/tt0074512/

◎豆瓣评分 7.1/10 (2180人评价)

◎豆瓣链接 https://movie.douban.com/subject/1298371/

◎片 长 121 分钟

◎导 演 阿尔弗雷德·希区柯克 Alfred Hitchcock (id:1025185)

◎编 剧 恩斯特·莱赫曼 Ernest Lehman (id:1037077)

维克托·坎宁 Victor Canning (id:1020295)

◎演 员 凯伦·布莱克 Karen Black (id:1010618)

布鲁斯·邓恩 Bruce Dern (id:1019069)

芭芭拉·哈里斯 Barbara Harris (id:1022842)

威廉姆·德瓦内 William Devane (id:1055380)

阿尔弗雷德·希区柯克 Alfred Hitchcock (id:1025185)

Martin West Martin West (id:1165652)

查尔斯·泰纳 Charles Tyner (id:1156354)

约翰·斯特德曼 John Steadman (id:1153600)

玛吉·雷德蒙德 Marge Redmond (id:1148019)

弗兰·瑞恩 Fran Ryan (id:1145812)

凯瑟琳·内斯比特 Cathleen Nesbitt (id:1130251)

Alexander Lockwood Alexander Lockwood (id:1122831)

尼可拉斯·科拉山多 Nicholas Colasanto (id:1014028)

威廉·普林斯 William Prince (id:1007195)

凯瑟琳·海蒙德 Katherine Helmond (id:1055198)

伊迪丝·阿特沃特 Edith Atwater (id:1058918)

Dee Carroll Dee Carroll (id:1069521)

Elisabeth Brooks Elisabeth Brooks (id:1071270)

阿兰·弗吉 Alan Fudge (id:1083598)

理查德·黑尔 Richard Hale (id:1091536)

John Lehne John Lehne (id:1106599)

沃伦·肯梅灵 Warren J. Kemmerling (id:1107977)

埃德·劳特尔 Ed Lauter (id:1111563)

Louise Lorimer Louise Lorimer (id:1120824)

阿尔弗雷德·希区柯克 Alfred Hitchcock (id:1025185)

约翰·威廉姆斯 John Williams (id:1054692)

Leonard J. South Leonard J. South (id:1029491)

J·泰瑞·威廉姆斯 J. Terry Williams (id:1300967)

詹姆斯·W·佩恩 James W. Payne (id:1294162)

亨利·巴姆斯泰德 Henry Bumstead (id:1033020)

伊迪丝·海德 Edith Head (id:1041085)

Jack Barron Jack Barron (id:1277983)

John Slosser John Slosser (id:1297796)

霍华德·G·卡赞强 Howard G. Kazanjian (id:1288271)

Wayne A. Farlow Wayne A. Farlow (id:1087289)

亚瑟·威德默 Arthur Widmer (id:1324989)

阿尔伯特·惠特洛克 Albert Whitlock (id:1162773)

Bill Taylor Bill Taylor (id:1298968)

Syd Dutton Syd Dutton (id:1038517)

◎简 介

茱莉亚(Cathleen Nesbitt 饰)年事已高,家财万贯,可是没有子嗣,也就没有名正言顺的继承者,为此,她找到了女巫师布兰奇(芭芭拉·哈里斯 Barbara Harris 饰)。茱莉亚告诉布兰奇,她的妹妹曾有一个私生子,被她送给别人抚养,如今,她想找到这个可怜的孩子,让他继承家产。

就这样,布兰奇和情人乔治(布鲁斯·邓恩 Bruce Dern 饰)一起展开了调查,得知领养茱莉亚外甥的那个家庭全员葬身于大火之中,而放火的不是别人,正是他们想要找的那个人——爱德华(威廉姆·德瓦内 William Devane 饰)。如今的爱德华改名换姓,成为了一位珠宝商,狡猾的他害怕当年的罪行曝光,于是雇佣了当年帮他脱罪的马罗尼(艾德·劳特 Ed Lauter 饰),让他将布兰奇一行人杀死。

  1. ##### MediaInfo ######

  2. General

  3. Unique ID : 111976308113166867224901575799769769513 (0x543DDA3C80DBEE8AD1EF359B00BDA629)

  4. Complete name : Family.Plot.1976.BluRay.2160p.DTS-HD.MA.2.0.HDR.x265.10bit-CTRLHD.mkv

  5. Format : Matroska

  6. Format version : Version 4

  7. File size : 21.0 GiB

  8. Duration : 2 h 0 min

  9. Overall bit rate mode : Variable

  10. Overall bit rate : 25.0 Mb/s

  11. Movie name : Family Plot

  12. Encoded date : UTC 2022-05-09 01:52:16

  13. Writing application : mkvmerge v63.0.0 ('Everything') 64-bit

  14. Writing library : libebml v1.4.2 + libmatroska v1.6.4

  15. Cover : Yes

  16. Attachments : cover.jpg

  17. Video

  18. ID : 1

  19. Format : HEVC

  20. Format/Info : High Efficiency Video Coding

  21. Format profile : Main [email protected]@High

  22. HDR format : SMPTE ST 2086, HDR10 compatible

  23. Codec ID : V_MPEGH/ISO/HEVC

  24. Duration : 2 h 0 min

  25. Bit rate : 23.1 Mb/s

  26. Width : 3 840 pixels

  27. Height : 2 076 pixels

  28. Display aspect ratio : 1.85:1

  29. Frame rate mode : Constant

  30. Frame rate : 23.976 (24000/1001/53354) FPS

  31. Color space : YUV

  32. Chroma subsampling : 4:2:0 (Type 2)

  33. Bit depth : 10 bits

  34. Bits/(Pixel*Frame) : 0.121

  35. Stream size : 19.4 GiB (92%)

  36. Writing library : x265 3.5+2-g2b25c9ba0+87:[Windows][clang 12.0.1][64 bit] Kasumi 10bit

  37. Encoding settings : rc=crf / crf=13.5000 / qcomp=0.60 / qpstep=4 / stats-write=0 / stats-read=0 / no-lossless / no-cu-lossless / aq-mode=1 / aq-strength=1.00 / cbqpoffs=0 / crqpoffs=0 / ipratio=1.40 / pbratio=1.30 / psy-rd=3.00 / psy-rdoq=4.80 / deblock=0:0 / ref=6 / limit-refs=1 / no-limit-modes / bframes=14 / b-adapt=2 / bframe-bias=0 / b-pyramid / b-intra / weightp / weightb / min-keyint=23 / max-keyint=250 / rc-lookahead=75 / gop-lookahead=0 / NTMzNTQ=uuDQuD2mJt9fsCf / scenecut=40 / hist-scenecut=0 / radl=0 / max-cu-size=64 / min-cu-size=8 / me=3 / subme=7 / merange=64 / rdoq-level=2 / rd=4 / rdpenalty=2 / dynamic-rd=0.00 / no-rd-refine / ----- / cutree / no-sao / no-rect / no-amp / no-open-gop / wpp / no-pmode / no-pme / no-psnr / no-ssim / nr-intra=0 / nr-inter=0 / no-constrained-intra / no-strong-intra-smoothing / max-tu-size=32 / tu-inter-depth=1 / tu-intra-depth=1 / limit-tu=0 / qg-size=32 / qpmax=69 / qpmin=0 / ----- / cpuid=533541111039 / frame-threads=6 / numa-pools=64,64,0,0 / log-level=2 / input-csp=1 / input-res=3840x2076 / interlace=0 / level-idc=0 / high-tier=1 / uhd-bd=0 / no-allow-non-conformance / repeat-headers / no-aud / no-hrd / info / hash=0 / no-temporal-layers / lookahead-slices=8 / no-splice / no-intra-refresh / no-ssim-rd / signhide / no-tskip / max-merge=3 / temporal-mvp / no-frame-dup / no-hme / no-analyze-src-pics / no-sao-non-deblock / selective-sao=0 / early-skip / rskip / no-fast-intra / no-tskip-fast / no-splitrd-skip / zone-count=0 / no-strict-cbr / no-rc-grain / no-const-vbv / sar=0 / overscan=0 / videoformat=5 / range=0 / colorprim=9 / transfer=16 / colormatrix=9 / chromaloc=1 / chromaloc-top=2 / chromaloc-bottom=2 / display-window=0 / master-display=G(13250,34500)B(7500,3000)R(34000,16000)WP(15635,16450)L(10000000,50) / cll=1000,95 / min-luma=0 / max-luma=1023 / log2-max-poc-lsb=8 / vui-timing-info / vui-hrd-info / slices=1 / no-opt-qp-pps / no-opt-ref-list-length-pps / no-multi-pass-opt-rps / scenecut-bias=0.05 / hist-threshold=0.03 / no-opt-cu-delta-qp / aq-motion / hdr10 / hdr10-opt / no-dhdr10-opt / no-idr-recovery-sei / analysis-reuse-level=0 / analysis-save-reuse-level=0 / analysis-load-reuse-level=0 / scale-factor=0 / refine-intra=0 / refine-inter=0 / refine-mv=1 / refine-ctu-distortion=0 / no-limit-sao / ctu-info=0 / no-lowpass-dct / refine-analysis-type=0 / copy-pic=1 / max-ausize-factor=1.0 / no-dynamic-refine / no-single-sei / no-hevc-aq / no-svt / no-field / qp-adaptation-range=1.00 / scenecut-aware-qp=0conformance-window-offsets / right=0 / bottom=0 / NTMzNTQ= / decoder-max-rate=0 / no-vbv-live-multi-pass

  38. Default : Yes

  39. Forced : No

  40. Color range : Limited

  41. Color primaries : BT.2020

  42. Transfer characteristics : PQ

  43. Matrix coefficients : BT.2020 non-constant

  44. Mastering display color primaries : Display P3

  45. Mastering display luminance : min: 0.0050 cd/m2, max: 1000 cd/m2

  46. Maximum Content Light Level : 1000 cd/m2

  47. Maximum Frame-Average Light Level : 95 cd/m2

  48. Audio

  49. ID : 2

  50. ID in the original source medium : 4352 (0x1100)

  51. Format : DTS XLL

  52. Format/Info : Digital Theater Systems

  53. Commercial name : DTS-HD Master Audio

  54. Codec ID : A_DTS

  55. Duration : 2 h 0 min

  56. Bit rate mode : Variable

  57. Bit rate : 1 836 kb/s

  58. Channel(s) : 2 channels

  59. Channel layout : L R

  60. Sampling rate : 48.0 kHz

  61. Frame rate : 93.750 FPS (512 SPF)

  62. Bit depth : 24 bits

  63. Compression mode : Lossless

  64. Stream size : 1.54 GiB (7%)

  65. Language : English

  66. Default : Yes

  67. Forced : No

  68. Original source medium : Blu-ray

  69. Text #1

  70. ID : 3

  71. ID in the original source medium : 4768 (0x12A0)

  72. Format : PGS

  73. Muxing mode : zlib

  74. Codec ID : S_HDMV/PGS

  75. Codec ID/Info : Picture based subtitle format used on BDs/HD-DVDs

  76. Duration : 1 h 58 min

  77. Bit rate : 41.4 kb/s

  78. Count of elements : 3084

  79. Stream size : 35.1 MiB (0%)

  80. Language : English

  81. Default : Yes

  82. Forced : No

  83. Original source medium : Blu-ray

  84. Text #2

  85. ID : 4

  86. ID in the original source medium : 4780 (0x12AC)

  87. Format : PGS

  88. Muxing mode : zlib

  89. Codec ID : S_HDMV/PGS

  90. Codec ID/Info : Picture based subtitle format used on BDs/HD-DVDs

  91. Duration : 1 h 58 min

  92. Bit rate : 29.4 kb/s

  93. Count of elements : 2971

  94. Stream size : 24.9 MiB (0%)

  95. Title : chs

  96. Language : Chinese

  97. Default : Yes

  98. Forced : No

  99. Original source medium : Blu-ray

  100. Text #3

  101. ID : 5

  102. ID in the original source medium : 4781 (0x12AD)

  103. Format : PGS

  104. Muxing mode : zlib

  105. Codec ID : S_HDMV/PGS

  106. Codec ID/Info : Picture based subtitle format used on BDs/HD-DVDs

  107. Duration : 1 h 58 min

  108. Bit rate : 30.2 kb/s

  109. Count of elements : 2971

  110. Stream size : 25.6 MiB (0%)

  111. Title : cht

  112. Language : Chinese

  113. Default : Yes

  114. Forced : No

  115. Original source medium : Blu-ray

  116. Text #4

  117. ID : 6

  118. ID in the original source medium : 4782 (0x12AE)

  119. Format : PGS

  120. Muxing mode : zlib

  121. Codec ID : S_HDMV/PGS

  122. Codec ID/Info : Picture based subtitle format used on BDs/HD-DVDs

  123. Duration : 1 h 58 min

  124. Bit rate : 47.2 kb/s

  125. Count of elements : 2971

  126. Stream size : 40.1 MiB (0%)

  127. Title : chs&eng

  128. Language : Chinese

  129. Default : Yes

  130. Forced : No

  131. Original source medium : Blu-ray

  132. Text #5

  133. ID : 7

  134. ID in the original source medium : 4783 (0x12AF)

  135. Format : PGS

  136. Muxing mode : zlib

  137. Codec ID : S_HDMV/PGS

  138. Codec ID/Info : Picture based subtitle format used on BDs/HD-DVDs

  139. Duration : 1 h 58 min

  140. Bit rate : 48.0 kb/s

  141. Count of elements : 2971

  142. Stream size : 40.7 MiB (0%)

  143. Title : cht&eng

  144. Language : Chinese

  145. Default : Yes

  146. Forced : No

  147. Original source medium : Blu-ray

  148. Menu

  149. 00:00:00.000 : en:第 01 章

  150. 00:10:00.266 : en:第 02 章

  151. 00:14:03.717 : en:第 03 章

  152. 00:19:57.529 : en:第 04 章

  153. 00:30:22.487 : en:第 05 章

  154. 00:33:36.055 : en:第 06 章

  155. 00:41:30.154 : en:第 07 章

  156. 00:46:29.244 : en:第 08 章

  157. 00:57:25.984 : en:第 09 章

  158. 01:01:03.409 : en:第 10 章

  159. 01:07:10.234 : en:第 11 章

  160. 01:14:28.714 : en:第 12 章

  161. 01:29:11.346 : en:第 13 章

  162. 01:37:39.728 : en:第 14 章

  163. 01:45:25.777 : en:第 15 章

  164. 01:53:51.282 : en:第 16 章

  165. 01:56:53.881 : en:第 17 章

  166. 01:59:08.891 : en:第 18 章



文件下载


除非特别注明,本文『大巧局[HDR版本][简繁英字幕].Family.Plot.1976.BluRay.2160p.DTS-HD.MA.2.0.HDR.x265.10bit-CTRLHD 20.98GB』来源于互联网机器人自动抓取,非本站原创。 浮游电影网不对本文拥有版权,如有侵犯,请联系邮箱:fuyouu#yandex.com[#换成@]投诉。我们会在15个工作日内删除。 但烦请转载时请标明出处:“本文转载于『浮游电影网』,原文地址:https://www.fuyouu.com/22034.html

评论吧骚年!

发表你的见解   

昵称*

E-mail*(建议输入,以便收到博主回复的提示邮件)

验证码*

您可以使用eMule或eMule Mod(Windows)、aMule(Win、Linux、Mac)等软件下载eD2k链接。。
eMule收藏集(.emulecollection)文件是您选中的所有链接的列表文件。eMule可以直接下载它们。
按住SHIFT键选择可以选中多个选择框。
可用文件名和大小选择器来选择文件。
文件名选择器帮您根据文件名称或后缀来选择文件。不分大小写。
符号使用:
和:空格( )、+
不包含:-
或:|
转义:一对英文引号("");
匹配开头:^
匹配结尾:$
例如:
选中所有名称中包含有“eMule”或“0.49c”字眼,但不包含有“exe”字眼的:emule|0.49c -exe
选中所有名称的开头是“eMule”,结尾是“0.49c”的:^emule 0.49c$
选中所有名称中带有“eMule 0.49c”的(必须是“eMule 0.49c”,中间没有别的字符,不能是“eMule fake 0.49c”),需要转义:"emule 0.49c"
大小选择器帮您根据文件大小选择文件。