当前位置: 首页 >> 海外电影 >> 某种爱的纪录[中文字幕].Story.of.a.Love.Affair.1950.1080p.BluRay.DD2.0.x265-10bit-ENTHD 7.60GB >> 正文

某种爱的纪录[中文字幕].Story.of.a.Love.Affair.1950.1080p.BluRay.DD2.0.x265-10bit-ENTHD 7.60GB

2022年05月09日 22:07:30     电影发布:来源于网络     电影分类:海外电影     评论(0)    

◎译 名 某种爱的纪录 / 爱情编年史(台) / 恋爱纪事(台) / 爱情纪事录 / 爱情记录 / 爱情故事 / 爱情纪事 / 爱情事故 / Story of a Love Affair

◎片 名 Cronaca di un amore

◎年 代 1950

◎产 地 意大利

◎类 别 剧情 / 爱情 / 犯罪

◎语 言 意大利语

◎上映日期 1950-10-11

◎IMDb链接 https://www.imdb.com/title/tt0042355/

◎豆瓣评分 7.3/10 (1295人评价)

◎豆瓣链接 https://movie.douban.com/subject/1303581/

◎片 长 98分钟

◎导 演 米开朗基罗·安东尼奥尼 Michelangelo Antonioni (id:1022002)

◎编 剧 米开朗基罗·安东尼奥尼 Michelangelo Antonioni (id:1022002)

皮耶罗·特里尼 Piero Tellini (id:1017164)

弗朗西斯科·马塞利 Francesco Maselli (id:1038006)

西尔维奥·焦瓦尼内蒂 Silvio Giovaninetti (id:1009031)

达妮埃莱·达安扎 Daniele D'Anza (id:1003775)

◎演 员 露西娅·波塞 Lucia Bosé (id:1007222)

马西莫·吉洛蒂 Massimo Girotti (id:1048382)

费迪南多·萨尔米 Ferdinando Sarmi (id:1353731)

吉诺·罗西 Gino Rossi (id:1353730)

玛丽卡·罗斯基 Marika Rowsky (id:1353729)

罗西·米拉菲奥雷 Rosi Mirafiore (id:1353732)

鲁比·达尔马 Rubi D'Alma (id:1071788)

安妮塔·法拉 Anita Farra (id:1084643)

佛朗哥·法布里齐 Franco Fabrizi (id:1084645)

吉诺·塞尔维 Gino Cervi (id:1077160)

乔凡尼·福斯科 Giovanni Fusco (id:1029094)

米开朗基罗·安东尼奥尼 Michelangelo Antonioni (id:1022002)

皮耶罗·菲利波内 Piero Filippone (id:1043288)

弗朗西斯科·马塞利 Francesco Maselli (id:1038006)

Stefano Camberini (id:1221764)

◎简 介

富商恩里克(Ferdinando Sarmi 饰)雇佣了私家侦探卡洛尼(Gino Rossi 饰)调查妻子宝拉(露西娅·波塞 Lucia Bosé 饰)的行踪。随着侦探调查的深入,宝拉的初恋情人圭多(马西莫·吉洛提 Massimo Girotti 饰)渐渐浮出水面,随着圭多而来的,还有一个隐藏多年的秘密。

原来,圭多曾经的恋人乔伊(Marika Rowsky 饰)亦是宝拉的好友,三人陷入了一场暧昧的三角关系之中。在一场意外中,乔伊不幸去世,而宝拉和圭多也就此分道扬镳。如今,圭多和宝拉重逢,熊熊燃烧的爱火在两人之间死灰复燃。然而,宝拉既放不下如今荣华富贵的生活,却又向往同圭多真挚火热的感情,一时之间,她陷入了两难的选择之中。

  1. ##### MediaInfo ######

  2. General

  3. Unique ID : 145327499598886027792603941732162734057 (0x6D550EEE317E6D9D955D1F9C78D807E9)

  4. Complete name : Story.of.a.Love.Affair.1950.1080p.BluRay.DD2.0.x265-10bit-ENTHD.mkv

  5. Format : Matroska

  6. Format version : Version 4

  7. File size : 7.59 GiB

  8. Duration : 1 h 42 min

  9. Overall bit rate : 10.6 Mb/s

  10. Movie name : Story of a Love Affair 1950 1080p BluRay DD2.0 x265-10bit-HDS

  11. Encoded date : UTC 2022-05-08 00:44:28

  12. Writing application : mkvmerge v38.0.0 ('The Silent Type') 64-bit

  13. Writing library : libebml v1.3.9 + libmatroska v1.5.2

  14. Video

  15. ID : 1

  16. Format : HEVC

  17. Format/Info : High Efficiency Video Coding

  18. Format profile : Main [email protected]@High

  19. Codec ID : V_MPEGH/ISO/HEVC

  20. Duration : 1 h 42 min

  21. Bit rate : 9 922 kb/s

  22. Width : 1 440 pixels

  23. Height : 1 080 pixels

  24. Display aspect ratio : 4:3

  25. Frame rate mode : Constant

  26. Frame rate : 23.976 (24000/1001/53354) FPS

  27. Color space : YUV

  28. Chroma subsampling : 4:2:0

  29. Bit depth : 10 bits

  30. Bits/(Pixel*Frame) : 0.266

  31. Stream size : 7.11 GiB (94%)

  32. Title : @HDSky

  33. Writing library : x265 - H.265/HEVC codec

  34. Default : Yes

  35. Forced : No

  36. Audio

  37. ID : 2

  38. Format : AC-3

  39. Format/Info : Audio Coding 3

  40. Commercial name : Dolby Digital

  41. Codec ID : A_AC3

  42. Duration : 1 h 42 min

  43. Bit rate mode : Constant

  44. Bit rate : 640 kb/s

  45. Channel(s) : 2 channels

  46. Channel layout : L R

  47. Sampling rate : 48.0 kHz

  48. Frame rate : 31.250 FPS (1536 SPF)

  49. Compression mode : Lossy

  50. Stream size : 470 MiB (6%)

  51. Title : Italian

  52. Language : Italian

  53. Service kind : Complete Main

  54. Default : Yes

  55. Forced : No

  56. Text #1

  57. ID : 3

  58. Format : PGS

  59. Muxing mode : zlib

  60. Codec ID : S_HDMV/PGS

  61. Codec ID/Info : Picture based subtitle format used on BDs/HD-DVDs

  62. Duration : 1 h 40 min

  63. Bit rate : 31.4 kb/s

  64. Count of elements : 2277

  65. Stream size : 22.5 MiB (0%)

  66. Title : CHS

  67. Language : Chinese

  68. Default : Yes

  69. Forced : No

  70. Text #2

  71. ID : 4

  72. Format : PGS

  73. Muxing mode : zlib

  74. Codec ID : S_HDMV/PGS

  75. Codec ID/Info : Picture based subtitle format used on BDs/HD-DVDs

  76. Duration : 1 h 40 min

  77. Bit rate : 32.2 kb/s

  78. Count of elements : 2277

  79. Stream size : 23.2 MiB (0%)

  80. Title : CHT

  81. Language : Chinese

  82. Default : No

  83. Forced : No

  84. Menu

  85. 00:00:00.000 : en:Chapter 01

  86. 00:02:35.155 : en:Chapter 02

  87. 00:12:46.516 : en:Chapter 03

  88. 00:24:29.259 : en:Chapter 04

  89. 00:30:06.763 : en:Chapter 05

  90. 00:40:42.190 : en:Chapter 06

  91. 00:50:28.734 : en:Chapter 07

  92. 01:06:27.650 : en:Chapter 08

  93. 01:15:39.243 : en:Chapter 09

  94. 01:25:54.107 : en:Chapter 10

  95. 01:34:03.513 : en:Chapter 11

  96. 01:40:30.233 : en:Chapter 12


复制代码



文件下载


除非特别注明,本文『某种爱的纪录[中文字幕].Story.of.a.Love.Affair.1950.1080p.BluRay.DD2.0.x265-10bit-ENTHD 7.60GB』来源于互联网机器人自动抓取,非本站原创。 浮游电影网不对本文拥有版权,如有侵犯,请联系邮箱:fuyouu#yandex.com[#换成@]投诉。我们会在15个工作日内删除。 但烦请转载时请标明出处:“本文转载于『浮游电影网』,原文地址:https://www.fuyouu.com/22029.html

评论吧骚年!

发表你的见解   

昵称*

E-mail*(建议输入,以便收到博主回复的提示邮件)

验证码*

您可以使用eMule或eMule Mod(Windows)、aMule(Win、Linux、Mac)等软件下载eD2k链接。。
eMule收藏集(.emulecollection)文件是您选中的所有链接的列表文件。eMule可以直接下载它们。
按住SHIFT键选择可以选中多个选择框。
可用文件名和大小选择器来选择文件。
文件名选择器帮您根据文件名称或后缀来选择文件。不分大小写。
符号使用:
和:空格( )、+
不包含:-
或:|
转义:一对英文引号("");
匹配开头:^
匹配结尾:$
例如:
选中所有名称中包含有“eMule”或“0.49c”字眼,但不包含有“exe”字眼的:emule|0.49c -exe
选中所有名称的开头是“eMule”,结尾是“0.49c”的:^emule 0.49c$
选中所有名称中带有“eMule 0.49c”的(必须是“eMule 0.49c”,中间没有别的字符,不能是“eMule fake 0.49c”),需要转义:"emule 0.49c"
大小选择器帮您根据文件大小选择文件。