当前位置: 首页 >> 海外电影 >> 橡皮轮胎杀手[简繁英字幕].Rubber.2010.GBR.BluRay.1080p.AV1.DDP5.1-MiniHD 6.41GB >> 正文

橡皮轮胎杀手[简繁英字幕].Rubber.2010.GBR.BluRay.1080p.AV1.DDP5.1-MiniHD 6.41GB

2022年05月09日 22:06:40     电影发布:来源于网络     电影分类:海外电影     评论(0)    

◎译 名 橡皮轮胎杀手 / 辘地魔(港) / 超能轮胎杀人事件(台) / 橡皮轮胎

◎片 名 Rubber

◎年 代 2010

◎产 地 法国

◎类 别 喜剧 / 恐怖

◎语 言 英语

◎上映日期 2010-11-10(法国)

◎IMDb链接 https://www.imdb.com/title/tt1612774/

◎豆瓣评分 6.5/10 (6684人评价)

◎豆瓣链接 https://movie.douban.com/subject/4813645/

◎片 长 85分钟(美国)

◎导 演 昆汀·杜皮约 Quentin Dupieux (id:1315649)

◎编 剧 昆汀·杜皮约 Quentin Dupieux (id:1315649)

◎演 员 罗克珊·梅斯基达 Roxane Mesquida (id:1027537)

维林斯·豪塞尔 Wings Hauser (id:1036505)

雷米·索恩 Remy Thorne (id:1036754)

德文·布洛楚 Devin Brochu (id:1327749)

大卫·鲍 David Bowe (id:1069956)

布莱克·罗宾斯 Blake Robbins (id:1205845)

Ethan Cohn Ethan Cohn (id:1201641)

杰克·普罗特尼克 Jack Plotnick (id:1041232)

柯特奈·泰勒 Courtenay Taylor (id:1185556)

斯蒂芬·斯皮内拉 Stephen Spinella (id:1150781)

哈莉·拉姆 Haley Ramm (id:1000229)

詹姆士·帕克斯 James Parks (id:1136664)

丹尼尔·奎恩 Daniel Quinn (id:1452458)

Josef Lieck Josef Lieck (id:1043044)

昆汀·杜皮约 Quentin Dupieux (id:1315649)

昆汀·杜皮约 Quentin Dupieux (id:1315649)

昆汀·杜皮约 Quentin Dupieux (id:1315649)

Donna Morong Donna Morong (id:1287513)

Zach Bangma Zach Bangma (id:1044040)

Karla Carnewal Karla Carnewal (id:1192499)

◎简 介

一望无际的荒漠旷野之上,盘桓着十多名不同身份不同年龄的普通人,他们手里各自拿着一个望远镜,透过镜片兀自眺望着远方。其中一人发现了一处垃圾场,所有的人也都向那里望去。视野中,一只蒙满沙尘的轮胎动了起来,匪夷所思的是,它的动作完全没有借助任何外力,仿佛全由其自身掌控一般。它蹒跚学步,磕磕绊绊,碾压着路上的空瓶子和蝎子。偶然间,轮胎似乎发现自己具有神奇的能力,只要集中注意力盯着(如果它有眼的话)前方的生命体数秒钟,对方就会脑袋炸裂爆头倒毙。

“哦耶!这简直太给力呐!”轮胎心中一定这样想到。于是,它滚着矫健的步伐,向前方走去,一路上掀起血雨腥风。而那群完全没有头脑的观着,始终注视着这离奇的一切……

  1. ##### MediaInfo ######

  2. General

  3. Unique ID : 179930401005870824484170984075666368859 (0x875D55B03A7422AFE9B4C4DD5E67A95B)

  4. Complete name : Rubber.2010.GBR.BluRay.1080p.AV1.DDP5.1-MiniHD.mkv

  5. Format : Matroska

  6. Format version : Version 4

  7. File size : 6.41 GiB

  8. Duration : 1 h 22 min

  9. Overall bit rate : 11.1 Mb/s

  10. Movie name : Rubber [2010] BluRay 1080p - FRDS

  11. Encoded date : UTC 2022-05-08 12:13:34

  12. Writing application : mkvmerge v66.0.0 ('Josie') 64-bit

  13. Writing library : libebml v1.4.2 + libmatroska v1.6.4

  14. Cover : Yes

  15. Attachments : cover.jpg

  16. Video

  17. ID : 1

  18. Format : AV1

  19. Format/Info : AOMedia Video 1

  20. Format profile : [email protected]

  21. Codec ID : V_AV1

  22. Duration : 1 h 22 min

  23. Bit rate : 10.1 Mb/s

  24. Width : 1 920 pixels

  25. Height : 1 080 pixels

  26. Display aspect ratio : 16:9

  27. Frame rate mode : Constant

  28. Frame rate : 23.976 (24000/1001/53354) FPS

  29. Color space : YUV

  30. Chroma subsampling : 4:2:0

  31. Bit depth : 10 bits

  32. Bits/(Pixel*Frame) : 0.203

  33. Stream size : 5.79 GiB (90%)

  34. Default : Yes

  35. Forced : No

  36. Color range : Limited

  37. Audio

  38. ID : 2

  39. Format : E-AC-3

  40. Format/Info : Enhanced AC-3

  41. Commercial name : Dolby Digital Plus

  42. Codec ID : A_EAC3

  43. Duration : 1 h 22 min

  44. Bit rate mode : Constant

  45. Bit rate : 1 024 kb/s

  46. Channel(s) : 6 channels

  47. Channel layout : L R C LFE Ls Rs

  48. Sampling rate : 48.0 kHz

  49. Frame rate : 31.250 FPS (1536 SPF)

  50. Compression mode : Lossy

  51. Stream size : 603 MiB (9%)

  52. Language : English

  53. Service kind : Complete Main

  54. Default : Yes

  55. Forced : No

  56. Text #1

  57. ID : 3

  58. ID in the original source medium : 4608 (0x1200)

  59. Format : PGS

  60. Muxing mode : zlib

  61. Codec ID : S_HDMV/PGS

  62. Codec ID/Info : Picture based subtitle format used on BDs/HD-DVDs

  63. Duration : 1 h 20 min

  64. Bit rate : 20.9 kb/s

  65. Count of elements : 1482

  66. Stream size : 12.1 MiB (0%)

  67. Language : English

  68. Default : No

  69. Forced : No

  70. Original source medium : Blu-ray

  71. Text #2

  72. ID : 4

  73. ID in the original source medium : 4609 (0x1201)

  74. Format : PGS

  75. Muxing mode : zlib

  76. Codec ID : S_HDMV/PGS

  77. Codec ID/Info : Picture based subtitle format used on BDs/HD-DVDs

  78. Duration : 1 h 19 min

  79. Bit rate : 17.1 kb/s

  80. Count of elements : 1278

  81. Stream size : 9.68 MiB (0%)

  82. Title : CHS

  83. Language : Chinese

  84. Default : No

  85. Forced : No

  86. Original source medium : Blu-ray

  87. Text #3

  88. ID : 5

  89. ID in the original source medium : 4610 (0x1202)

  90. Format : PGS

  91. Muxing mode : zlib

  92. Codec ID : S_HDMV/PGS

  93. Codec ID/Info : Picture based subtitle format used on BDs/HD-DVDs

  94. Duration : 1 h 19 min

  95. Bit rate : 17.2 kb/s

  96. Count of elements : 1278

  97. Stream size : 9.75 MiB (0%)

  98. Title : CHT

  99. Language : Chinese

  100. Default : No

  101. Forced : No

  102. Original source medium : Blu-ray

  103. Text #4

  104. ID : 6

  105. ID in the original source medium : 4611 (0x1203)

  106. Format : PGS

  107. Muxing mode : zlib

  108. Codec ID : S_HDMV/PGS

  109. Codec ID/Info : Picture based subtitle format used on BDs/HD-DVDs

  110. Duration : 1 h 19 min

  111. Bit rate : 27.7 kb/s

  112. Count of elements : 1278

  113. Stream size : 15.7 MiB (0%)

  114. Title : Chs&Eng

  115. Language : Chinese

  116. Default : Yes

  117. Forced : No

  118. Original source medium : Blu-ray

  119. Menu

  120. 00:00:00.000 : en:No Reason

  121. 00:05:07.224 : en:Enjoy

  122. 00:14:29.952 : en:That's Odd

  123. 00:18:47.251 : en:Let's Go

  124. 00:26:38.263 : en:Easy Rest Inn

  125. 00:29:12.376 : en:The Girl

  126. 00:35:39.429 : en:I Swear

  127. 00:42:45.772 : en:This Tire Is Alive

  128. 00:51:53.027 : en:Trouble

  129. 01:01:07.956 : en:3 Days Later

  130. 01:11:17.607 : en:The End, Bye

  131. 01:17:58.340 : en:End Credits



文件下载


除非特别注明,本文『橡皮轮胎杀手[简繁英字幕].Rubber.2010.GBR.BluRay.1080p.AV1.DDP5.1-MiniHD 6.41GB』来源于互联网机器人自动抓取,非本站原创。 浮游电影网不对本文拥有版权,如有侵犯,请联系邮箱:fuyouu#yandex.com[#换成@]投诉。我们会在15个工作日内删除。 但烦请转载时请标明出处:“本文转载于『浮游电影网』,原文地址:https://www.fuyouu.com/22028.html

评论吧骚年!

发表你的见解   

昵称*

E-mail*(建议输入,以便收到博主回复的提示邮件)

验证码*

您可以使用eMule或eMule Mod(Windows)、aMule(Win、Linux、Mac)等软件下载eD2k链接。。
eMule收藏集(.emulecollection)文件是您选中的所有链接的列表文件。eMule可以直接下载它们。
按住SHIFT键选择可以选中多个选择框。
可用文件名和大小选择器来选择文件。
文件名选择器帮您根据文件名称或后缀来选择文件。不分大小写。
符号使用:
和:空格( )、+
不包含:-
或:|
转义:一对英文引号("");
匹配开头:^
匹配结尾:$
例如:
选中所有名称中包含有“eMule”或“0.49c”字眼,但不包含有“exe”字眼的:emule|0.49c -exe
选中所有名称的开头是“eMule”,结尾是“0.49c”的:^emule 0.49c$
选中所有名称中带有“eMule 0.49c”的(必须是“eMule 0.49c”,中间没有别的字符,不能是“eMule fake 0.49c”),需要转义:"emule 0.49c"
大小选择器帮您根据文件大小选择文件。