当前位置: 首页 >> 欧美电影 >> 巨星嫁到[中文字幕].Marry.Me.2022.1080p.BluRay.DTS.x265-10bit-ENTHD 4.40GB >> 正文

巨星嫁到[中文字幕].Marry.Me.2022.1080p.BluRay.DTS.x265-10bit-ENTHD 4.40GB

2022年05月09日 22:04:54     电影发布:来源于网络     电影分类:欧美电影     评论(0)    

◎译 名 巨星嫁到 / 和我结婚 / 非常巨星拣老公(港) / 娶我吧!(台)

◎片 名 Marry Me

◎年 代 2022

◎产 地 美国

◎类 别 喜剧 / 爱情 / 音乐

◎语 言 英语

◎上映日期 2022-05-13(中国大陆) / 2022-02-11(美国/美国网络)

◎IMDb链接 https://www.imdb.com/title/tt10223460/

◎豆瓣评分 5.4/10 (2077人评价)

◎豆瓣链接 https://movie.douban.com/subject/34470709/

◎片 长 112分钟

◎导 演 凯特·凯罗 Kat Coiro (id:1281614)

◎编 剧 约翰·罗杰斯 John Rogers (id:1295917)

塔米·赛格 Tami Sagher (id:1303749)

哈珀·迪尔 Harper Dill (id:1468008)

博比·克罗斯比 Bobby Crosby (id:1468009)

◎演 员 詹妮弗·洛佩兹 Jennifer Lopez (id:1019000)

欧文·威尔逊 Owen Wilson (id:1006964)

马鲁玛 Maluma (id:1444466)

萨拉·西尔弗曼 Sarah Silverman (id:1036448)

约翰·布莱德利 John Bradley (id:1314665)

克洛伊·科尔曼 Chloe Coleman (id:1369480)

吉米·法伦 Jimmy Fallon (id:1049664)

布雷迪·诺恩 Brady Noon (id:1413073)

蜜雪儿·伯托 Michelle Buteau (id:1418808)

乌特卡什·安邦德卡尔 Utkarsh Ambudkar (id:1237549)

基思·埃威尔 Keith Ewell (id:1087907)

杰奎琳·霍努力克 Jacqueline Honulik (id:1393239)

卡特里娜·坎宁安 Katrina Cunningham (id:1422783)

斯蒂芬·沃勒 Stephen Wallem (id:1262448)

劳伦斯·史密斯 Lawrence Smith (id:1395934)

莱恩·瓦莱丽 Lynne Valley (id:1430495)

布莱斯·科里根 Blaise Corrigan (id:1281306)

洛根·克劳福德 Logan Crawford (id:1313082)

朱塞佩·阿迪佐内 Giuseppe Ardizzone (id:1392943)

赫纳多·罗德里格斯 Henardo Rodriguez (id:1437029)

亚历克斯·佩雷斯 Alex Perez (id:1395804)

瑞娜·郑 Raina Cheng (id:1430665)

乔纳森·M·帕里森 Jonathan M. Parisen (id:1015424)

马科·查卡 Marko Caka (id:1360577)

桃乐丝·麦卡锡 Doris McCarthy (id:1388388)

弗洛里安·巴尔豪斯 Florian Ballhaus (id:1420282)

◎简 介

流行巨星(詹妮弗·洛佩兹 Jennifer Lopez 饰)在结婚前一刻发现自己的未婚夫出轨,于是在台上随意挑选了数学老师(欧文·威尔逊 Owen Wilson 饰)结婚,二人究竟能否真正擦出爱情的火花?有情人最终能否终成眷属?

  1. ##### MediaInfo ######

  2. General

  3. Unique ID : 230750504744998447325689473031785543375 (0xAD98EE40DA80227C83C57AE2E71DF6CF)

  4. Complete name : Marry.Me.2022.1080p.BluRay.DTS.x265-10bit-ENTHD.mkv

  5. Format : Matroska

  6. Format version : Version 4

  7. File size : 4.40 GiB

  8. Duration : 1 h 52 min

  9. Overall bit rate : 5 616 kb/s

  10. Movie name : Marry Me 2022 1080p BluRay DTS x265-10bit-HDS

  11. Encoded date : UTC 2022-05-06 08:22:16

  12. Writing application : mkvmerge v38.0.0 ('The Silent Type') 64-bit

  13. Writing library : libebml v1.3.9 + libmatroska v1.5.2

  14. Video

  15. ID : 1

  16. Format : HEVC

  17. Format/Info : High Efficiency Video Coding

  18. Format profile : Main [email protected]@High

  19. Codec ID : V_MPEGH/ISO/HEVC

  20. Duration : 1 h 52 min

  21. Bit rate : 4 044 kb/s

  22. Width : 1 920 pixels

  23. Height : 804 pixels

  24. Display aspect ratio : 2.40:1

  25. Frame rate mode : Constant

  26. Frame rate : 23.976 (24000/1001/53354) FPS

  27. Color space : YUV

  28. Chroma subsampling : 4:2:0

  29. Bit depth : 10 bits

  30. Bits/(Pixel*Frame) : 0.109

  31. Stream size : 3.17 GiB (72%)

  32. Title : @HDSky

  33. Writing library : x265 - H.265/HEVC codec

  34. Default : Yes

  35. Forced : No

  36. Audio

  37. ID : 2

  38. Format : DTS

  39. Format/Info : Digital Theater Systems

  40. Codec ID : A_DTS

  41. Duration : 1 h 52 min

  42. Bit rate mode : Constant

  43. Bit rate : 1 509 kb/s

  44. Channel(s) : 6 channels

  45. Channel layout : C L R Ls Rs LFE

  46. Sampling rate : 48.0 kHz

  47. Frame rate : 93.750 FPS (512 SPF)

  48. Bit depth : 24 bits

  49. Compression mode : Lossy

  50. Stream size : 1.18 GiB (27%)

  51. Title : English

  52. Language : English

  53. Default : Yes

  54. Forced : No

  55. Text #1

  56. ID : 3

  57. Format : PGS

  58. Muxing mode : zlib

  59. Codec ID : S_HDMV/PGS

  60. Codec ID/Info : Picture based subtitle format used on BDs/HD-DVDs

  61. Duration : 1 h 46 min

  62. Bit rate : 39.5 kb/s

  63. Count of elements : 4071

  64. Stream size : 30.2 MiB (1%)

  65. Title : CHS

  66. Language : Chinese

  67. Default : Yes

  68. Forced : No

  69. Text #2

  70. ID : 4

  71. Format : PGS

  72. Muxing mode : zlib

  73. Codec ID : S_HDMV/PGS

  74. Codec ID/Info : Picture based subtitle format used on BDs/HD-DVDs

  75. Duration : 1 h 51 min

  76. Bit rate : 60.2 kb/s

  77. Count of elements : 4861

  78. Stream size : 48.0 MiB (1%)

  79. Title : ENG

  80. Language : English

  81. Default : No

  82. Forced : No

  83. Text #3

  84. ID : 5

  85. Format : PGS

  86. Muxing mode : zlib

  87. Codec ID : S_HDMV/PGS

  88. Codec ID/Info : Picture based subtitle format used on BDs/HD-DVDs

  89. Duration : 1 h 46 min

  90. Bit rate : 40.2 kb/s

  91. Count of elements : 4071

  92. Stream size : 30.7 MiB (1%)

  93. Title : CHS

  94. Language : Chinese

  95. Default : No

  96. Forced : No

  97. Menu

  98. 00:00:00.000 : en:Chapter 01

  99. 00:03:10.774 : en:Chapter 02

  100. 00:10:40.265 : en:Chapter 03

  101. 00:15:43.276 : en:Chapter 04

  102. 00:21:57.525 : en:Chapter 05

  103. 00:25:52.676 : en:Chapter 06

  104. 00:33:25.670 : en:Chapter 07

  105. 00:40:23.755 : en:Chapter 08

  106. 00:46:05.554 : en:Chapter 09

  107. 00:50:29.944 : en:Chapter 10

  108. 00:58:57.451 : en:Chapter 11

  109. 01:04:45.965 : en:Chapter 12

  110. 01:11:17.607 : en:Chapter 13

  111. 01:15:31.902 : en:Chapter 14

  112. 01:18:53.938 : en:Chapter 15

  113. 01:26:40.695 : en:Chapter 16

  114. 01:32:44.768 : en:Chapter 17

  115. 01:36:59.105 : en:Chapter 18

  116. 01:40:10.421 : en:Chapter 19

  117. 01:45:06.383 : en:Chapter 20


复制代码



文件下载


除非特别注明,本文『巨星嫁到[中文字幕].Marry.Me.2022.1080p.BluRay.DTS.x265-10bit-ENTHD 4.40GB』来源于互联网机器人自动抓取,非本站原创。 浮游电影网不对本文拥有版权,如有侵犯,请联系邮箱:fuyouu#yandex.com[#换成@]投诉。我们会在15个工作日内删除。 但烦请转载时请标明出处:“本文转载于『浮游电影网』,原文地址:https://www.fuyouu.com/22026.html

评论吧骚年!

发表你的见解   

昵称*

E-mail*(建议输入,以便收到博主回复的提示邮件)

验证码*

您可以使用eMule或eMule Mod(Windows)、aMule(Win、Linux、Mac)等软件下载eD2k链接。。
eMule收藏集(.emulecollection)文件是您选中的所有链接的列表文件。eMule可以直接下载它们。
按住SHIFT键选择可以选中多个选择框。
可用文件名和大小选择器来选择文件。
文件名选择器帮您根据文件名称或后缀来选择文件。不分大小写。
符号使用:
和:空格( )、+
不包含:-
或:|
转义:一对英文引号("");
匹配开头:^
匹配结尾:$
例如:
选中所有名称中包含有“eMule”或“0.49c”字眼,但不包含有“exe”字眼的:emule|0.49c -exe
选中所有名称的开头是“eMule”,结尾是“0.49c”的:^emule 0.49c$
选中所有名称中带有“eMule 0.49c”的(必须是“eMule 0.49c”,中间没有别的字符,不能是“eMule fake 0.49c”),需要转义:"emule 0.49c"
大小选择器帮您根据文件大小选择文件。