当前位置: 首页 >> 海外电影 >> 微妙爱情[中文字幕].La.delicatesse.2011.1080p.BluRay.DTS.x265-10bit-ENTHD 6.63GB >> 正文

微妙爱情[中文字幕].La.delicatesse.2011.1080p.BluRay.DTS.x265-10bit-ENTHD 6.63GB

2022年05月09日 22:03:13     电影发布:来源于网络     电影分类:海外电影     评论(0)    

◎译 名 微妙爱情 / 一吻巴黎(港) / 爱情好意外(台) / 细腻 / 爱很简单 / 美味 / 精巧细致 / Delicacy

◎片 名 La délicatesse

◎年 代 2011

◎产 地 法国

◎类 别 喜剧 / 爱情

◎语 言 法语 / 瑞典语

◎上映日期 2011-12-21(法国)

◎IMDb链接 https://www.imdb.com/title/tt1828995/

◎豆瓣评分 6.9/10 (10051人评价)

◎豆瓣链接 https://movie.douban.com/subject/6424025/

◎片 长 108分钟

◎导 演 大卫·冯金诺斯 David Foenkinos (id:1320123)

斯特凡·冯金诺斯 Stéphane Foenkinos (id:1320124)

◎编 剧 大卫·冯金诺斯 David Foenkinos (id:1320123)

◎演 员 奥黛丽·塔图 Audrey Tautou (id:1004860)

弗朗索瓦·达密安 Fran?ois Damiens (id:1338355)

梅兰妮·贝尔内尔 Mélanie Bernier (id:1014503)

布鲁诺·托德契尼 Bruno Todeschini (id:1050557)

约瑟芬娜·德·摩 Joséphine de Meaux (id:1321531)

皮奥·马麦 Pio Marma? (id:1311921)

莫妮克·肖梅特 Monique Chaumette (id:1068328)

奥德雷·弗勒罗 Audrey Fleurot (id:1317872)

庞·克莱门捷夫 Pom Klementieff (id:1313255)

马克·西蒂 Marc Citti (id:1368724)

艾米莉·西蒙 Emilie Simon (id:1308913)

◎简 介

在浪漫氤氲的法国巴黎,年轻姑娘娜塔莉(奥黛丽·塔图 Audrey Tautou 饰)曾经拥有完美的爱情和快乐的工作,但在一天清晨,意外的车祸夺走了她丈夫的生命,也掐灭了她美好的生活轨迹。她开始沉溺新工作来试图麻痹自己,也拒绝别人的感情。然而,当一位其貌不扬的瑞士同事马库 斯(弗朗索瓦·达米昂 Fran?ois Damiens 饰)来到公司后,两人竟鬼使神差地渐生情愫,生活的味觉也似在慢慢复苏。但他们的交往却并不为外界看好,面对朋友们的不解和追求者的阻挠,两人将如何小心保护这份意外的爱情美味……

电影改编自大卫·冯金诺斯的同名小说,该书曾同时入围法国四大文学奖并荣获十项文学最高殊荣,在法国畅销突破75万册。

  1. ##### MediaInfo ######

  2. General

  3. Unique ID : 221298733329451600670063210034485316108 (0xA67C95F19398E5885A1F5A38ED74CA0C)

  4. Complete name : La.delicatesse.2011.1080p.BluRay.DTS.x265-10bit-ENTHD.mkv

  5. Format : Matroska

  6. Format version : Version 4

  7. File size : 6.63 GiB

  8. Duration : 1 h 49 min

  9. Overall bit rate : 8 699 kb/s

  10. Movie name : La delicatesse 2011 1080p BluRay DTS x265-10bit-HDS

  11. Encoded date : UTC 2022-05-07 11:30:39

  12. Writing application : mkvmerge v38.0.0 ('The Silent Type') 64-bit

  13. Writing library : libebml v1.3.9 + libmatroska v1.5.2

  14. Video

  15. ID : 1

  16. Format : HEVC

  17. Format/Info : High Efficiency Video Coding

  18. Format profile : Main [email protected]@High

  19. Codec ID : V_MPEGH/ISO/HEVC

  20. Duration : 1 h 49 min

  21. Bit rate : 7 169 kb/s

  22. Width : 1 920 pixels

  23. Height : 1 040 pixels

  24. Display aspect ratio : 1.85:1

  25. Frame rate mode : Constant

  26. Frame rate : 24.000 FPS

  27. Color space : YUV

  28. Chroma subsampling : 4:2:0

  29. Bit depth : 10 bits

  30. Bits/(Pixel*Frame) : 0.150

  31. Stream size : 5.46 GiB (82%)

  32. Title : @HDSky

  33. Writing library : x265 - H.265/HEVC codec

  34. Default : Yes

  35. Forced : No

  36. Audio

  37. ID : 2

  38. Format : DTS

  39. Format/Info : Digital Theater Systems

  40. Codec ID : A_DTS

  41. Duration : 1 h 49 min

  42. Bit rate mode : Constant

  43. Bit rate : 1 509 kb/s

  44. Channel(s) : 6 channels

  45. Channel layout : C L R Ls Rs LFE

  46. Sampling rate : 48.0 kHz

  47. Frame rate : 93.750 FPS (512 SPF)

  48. Bit depth : 24 bits

  49. Compression mode : Lossy

  50. Stream size : 1.15 GiB (17%)

  51. Title : French

  52. Language : French

  53. Default : Yes

  54. Forced : No

  55. Text #1

  56. ID : 3

  57. Format : PGS

  58. Muxing mode : zlib

  59. Codec ID : S_HDMV/PGS

  60. Codec ID/Info : Picture based subtitle format used on BDs/HD-DVDs

  61. Duration : 1 h 44 min

  62. Bit rate : 17.0 kb/s

  63. Count of elements : 2138

  64. Stream size : 12.7 MiB (0%)

  65. Title : CHS

  66. Language : Chinese

  67. Default : Yes

  68. Forced : No

  69. Text #2

  70. ID : 4

  71. Format : PGS

  72. Muxing mode : zlib

  73. Codec ID : S_HDMV/PGS

  74. Codec ID/Info : Picture based subtitle format used on BDs/HD-DVDs

  75. Duration : 1 h 44 min

  76. Bit rate : 17.5 kb/s

  77. Count of elements : 2138

  78. Stream size : 13.1 MiB (0%)

  79. Title : CHT

  80. Language : Chinese

  81. Default : No

  82. Forced : No

  83. Menu

  84. 00:00:00.000 : en:Chapter 01

  85. 00:07:32.500 : en:Chapter 02

  86. 00:18:02.875 : en:Chapter 03

  87. 00:28:06.917 : en:Chapter 04

  88. 00:38:20.833 : en:Chapter 05

  89. 00:47:59.250 : en:Chapter 06

  90. 00:54:34.500 : en:Chapter 07

  91. 01:03:11.750 : en:Chapter 08

  92. 01:11:58.875 : en:Chapter 09

  93. 01:23:04.042 : en:Chapter 10

  94. 01:33:03.375 : en:Chapter 11

  95. 01:45:00.958 : en:Chapter 12


复制代码



文件下载


除非特别注明,本文『微妙爱情[中文字幕].La.delicatesse.2011.1080p.BluRay.DTS.x265-10bit-ENTHD 6.63GB』来源于互联网机器人自动抓取,非本站原创。 浮游电影网不对本文拥有版权,如有侵犯,请联系邮箱:fuyouu#yandex.com[#换成@]投诉。我们会在15个工作日内删除。 但烦请转载时请标明出处:“本文转载于『浮游电影网』,原文地址:https://www.fuyouu.com/22024.html

评论吧骚年!

发表你的见解   

昵称*

E-mail*(建议输入,以便收到博主回复的提示邮件)

验证码*

您可以使用eMule或eMule Mod(Windows)、aMule(Win、Linux、Mac)等软件下载eD2k链接。。
eMule收藏集(.emulecollection)文件是您选中的所有链接的列表文件。eMule可以直接下载它们。
按住SHIFT键选择可以选中多个选择框。
可用文件名和大小选择器来选择文件。
文件名选择器帮您根据文件名称或后缀来选择文件。不分大小写。
符号使用:
和:空格( )、+
不包含:-
或:|
转义:一对英文引号("");
匹配开头:^
匹配结尾:$
例如:
选中所有名称中包含有“eMule”或“0.49c”字眼,但不包含有“exe”字眼的:emule|0.49c -exe
选中所有名称的开头是“eMule”,结尾是“0.49c”的:^emule 0.49c$
选中所有名称中带有“eMule 0.49c”的(必须是“eMule 0.49c”,中间没有别的字符,不能是“eMule fake 0.49c”),需要转义:"emule 0.49c"
大小选择器帮您根据文件大小选择文件。