当前位置: 首页 >> 欧美电影 >> 亚利桑那之梦[简繁字幕].Arizona.Dream.1993.BluRay.1080p.DTS-HD.MA.2.0.x265.10bit-ALT 12.52GB >> 正文

亚利桑那之梦[简繁字幕].Arizona.Dream.1993.BluRay.1080p.DTS-HD.MA.2.0.x265.10bit-ALT 12.52GB

2022年05月09日 22:02:20     电影发布:来源于网络     电影分类:欧美电影     评论(0)    

◎译 名 亚利桑那之梦 / 亚历桑那梦游 / 亚利桑纳之梦

◎片 名 Arizona Dream

◎年 代 1993

◎产 地 美国 / 法国

◎类 别 剧情 / 喜剧 / 爱情 / 奇幻

◎语 言 英语

◎上映日期 1993-01-06

◎IMDb链接 https://www.imdb.com/title/tt0106307/

◎豆瓣评分 8.0/10 (11990人评价)

◎豆瓣链接 https://movie.douban.com/subject/1293191/

◎片 长 142 分钟

◎导 演 埃米尔·库斯图里卡 Emir Kusturi?a (id:1047998)

◎编 剧 大卫·阿金斯 David Atkins (id:1358671)

埃米尔·库斯图里卡 Emir Kusturi?a (id:1047998)

◎演 员 约翰尼·德普 Johnny Depp (id:1054456)

莉莉·泰勒 Lili Taylor (id:1031888)

费·唐纳薇 Faye Dunaway (id:1013857)

文森特·加洛 Vincent Gallo (id:1000098)

杰瑞·刘易斯 Jerry Lewis (id:1032000)

宝琳娜·普利茨科娃 Paulina Porizkova (id:1000260)

迈克尔·波拉德 Michael J. Pollard (id:1137330)

埃米尔·库斯图里卡 Emir Kusturi?a (id:1047998)

Yves Marmion Yves Marmion (id:1291047)

珍妮·帕斯凯尔 Jan Pascale (id:1294039)

Jill M. Ohanneson Jill M. Ohanneson (id:1293497)

帕蒂·约克 Patty York (id:1301508)

塞尔吉奥·米米卡-戈赞 Sergio Mimica-Gezzan (id:1292148)

马克·尼尔姆斯 Mark Nelmes (id:1293026)

肯特·休斯顿 Kent Houston (id:1286980)

◎简 介

在纽约打工的青年阿克塞(Johnny Depp 饰)梦中看到一位因纽特人昏倒在冰原上,雪橇犬将其救回,一只红气球在空中不停飘荡……阿克塞痴迷表演的朋友保罗(Vincent Gallo 饰)来访,邀请他远赴亚利桑那为伯父里奥伴婚,里奥在亚利桑那经营汽车生意打拼多年,遂留下阿克塞与保罗二人在车行中工作。不久阿克塞结识了性格不合的艾琳娜(Faye Dunaway 饰)与格蕾丝母女,为帮助艾琳娜圆一个飞行梦,阿克塞滞留这对母女家中,尝试制作各种飞行器,在不断的失败中从头再来,这对神经质母女的吵闹一直伴随着他。阿克塞的梦里,一只鱼在空中穿梭飞升……艾琳娜终于得到了一架小飞机,在庆祝的聚会上,阿克塞向格蕾丝示爱引发了意外的结局。

本片获1993年柏林电影节银熊奖。

◎获奖情况 (共2项)

第43届柏林国际电影节 (1993)

金熊奖 最佳影片(提名)

└──埃米尔·库斯图里卡 (id:1047998)

银熊奖 评审团奖

└──埃米尔·库斯图里卡 (id:1047998)

  1. ##### MediaInfo ######

  2. General

  3. Unique ID : 36018459479694760740469072638742391777 (0x1B18E728CC0E5193C46F53EE7C286BE1)

  4. Complete name : Arizona.Dream.1993.BluRay.1080p.DTS-HD.MA.2.0.x265.10bit-ALT.mkv

  5. Format : Matroska

  6. Format version : Version 4

  7. File size : 12.5 GiB

  8. Duration : 2 h 20 min

  9. Overall bit rate mode : Variable

  10. Overall bit rate : 12.8 Mb/s

  11. Encoded date : UTC 2022-05-09 02:09:36

  12. Writing application : mkvmerge v49.0.0 ('Sick Of Losing Soulmates') 64-bit

  13. Writing library : libebml v1.4.0 + libmatroska v1.6.1

  14. Video

  15. ID : 1

  16. Format : HEVC

  17. Format/Info : High Efficiency Video Coding

  18. Format profile : Main [email protected]@High

  19. Codec ID : V_MPEGH/ISO/HEVC

  20. Duration : 2 h 20 min

  21. Bit rate : 11.0 Mb/s

  22. Width : 1 920 pixels

  23. Height : 1 038 pixels

  24. Display aspect ratio : 1.85:1

  25. Frame rate mode : Constant

  26. Frame rate : 23.976 (24000/1001/53354) FPS

  27. Color space : YUV

  28. Chroma subsampling : 4:2:0

  29. Bit depth : 10 bits

  30. Bits/(Pixel*Frame) : 0.231

  31. Stream size : 10.8 GiB (86%)

  32. Title : HEVC, [email protected]@High, 24/1.001 fps @ 11023 kbps

  33. Writing library : x265 3.5+36-1f2c8da77:[Windows][GCC 11.2.0][64 bit] 10bit

  34. Encoding settings : cpuid=533541111039 / frame-threads=4 / numa-pools=16 / wpp / no-pmode / no-pme / no-psnr / no-ssim / log-level=2 / input-csp=1 / input-res=1920x1038 / interlace=0 / total-frames=201963 / level-idc=51 / high-tier=1 / uhd-bd=0 / ref=5 / no-allow-non-conformance / no-repeat-headers / annexb / no-aud / no-eob / no-eos / no-hrd / info / hash=0 / no-temporal-layers / open-gop / min-keyint=24 / keyint=240 / gop-lookahead=0 / bframes=6 / b-adapt=2 / b-pyramid / bframe-bias=0 / rc-lookahead=40 / lookahead-slices=0 / NTMzNTQ=uuDQuD2mJt9fsCf / scenecut=40 / no-hist-scenecut / radl=0 / no-splice / no-intra-refresh / ctu=32 / min-cu-size=8 / no-rect / no-amp / max-tu-size=32 / tu-inter-depth=3 / tu-intra-depth=3 / limit-tu=4 / rdoq-level=2 / dynamic-rd=0.00 / no-ssim-rd / signhide / no-tskip / nr-intra=0 / nr-inter=0 / no-constrained-intra / no-strong-intra-smoothing / max-merge=4 / limit-refs=1 / limit-modes / me=3 / subme=4 / merange=25 / temporal-mvp / no-frame-dup / no-hme / weightp / weightb / no-analyze-src-pics / deblock=-3:-3 / no-sao / no-sao-non-deblock / rd=6 / selective-sao=0 / no-early-skip / rskip / no-fast-intra / no-tskip-fast / no-cu-lossless / b-intra / no-splitrd-skip / rdpenalty=0 / psy-rd=2.00 / psy-rdoq=1.00 / no-rd-refine / no-lossless / cbqpoffs=-2 / crqpoffs=-2 / rc=crf / crf=19.5 / qcomp=0.65 / qpstep=4 / stats-write=0 / stats-read=0 / vbv-maxrate=80000 / vbv-bufsize=80000 / vbv-init=0.9 / min-vbv-fullness=50.0 / max-vbv-fullness=80.0 / crf-max=0.0 / crf-min=0.0 / ipratio=1.40 / pbratio=1.30 / aq-mode=2 / aq-strength=0.85 / cutree / zone-count=0 / no-strict-cbr / qg-size=32 / no-rc-grain / qpmax=69 / qpmin=0 / no-const-vbv / sar=1 / overscan=0 / videoformat=5 / range=0 / colorprim=1 / transfer=1 / colormatrix=1 / chromaloc=0 / display-window=0 / cll=0,0 / min-luma=0 / max-luma=1023 / log2-max-poc-lsb=8 / vui-timing-info / vui-hrd-info / slices=1 / no-opt-qp-pps / no-opt-ref-list-length-pps / no-multi-pass-opt-rps / scenecut-bias=0.05 / hist-threshold=0.03 / no-opt-cu-delta-qp / no-aq-motion / no-hdr10 / no-hdr10-opt / no-dhdr10-opt / no-idr-recovery-sei / analysis-reuse-level=0 / analysis-save-reuse-level=0 / analysis-load-reuse-level=0 / scale-factor=0 / refine-intra=0 / refine-inter=0 / refine-mv=1 / refine-ctu-distortion=0 / no-limit-sao / ctu-info=0 / no-lowpass-dct / refine-analysis-type=0 / copy-pic=1 / max-ausize-factor=1.0 / no-dynamic-refine / no-single-sei / no-hevc-aq / no-svt / no-field / qp-adaptation-range=1.00 / scenecut-aware-qp=0conformance-window-offsets / right=0 / bottom=0 / NTMzNTQ= / decoder-max-rate=0 / no-vbv-live-multi-pass

  35. Language : English

  36. Default : Yes

  37. Forced : No

  38. Color range : Limited

  39. Color primaries : BT.709

  40. Transfer characteristics : BT.709

  41. Matrix coefficients : BT.709

  42. Audio

  43. ID : 2

  44. Format : DTS XLL

  45. Format/Info : Digital Theater Systems

  46. Commercial name : DTS-HD Master Audio

  47. Codec ID : A_DTS

  48. Duration : 2 h 20 min

  49. Bit rate mode : Variable

  50. Bit rate : 1 699 kb/s

  51. Channel(s) : 2 channels

  52. Channel layout : L R

  53. Sampling rate : 48.0 kHz

  54. Frame rate : 93.750 FPS (512 SPF)

  55. Bit depth : 16 bits

  56. Compression mode : Lossless

  57. Stream size : 1.67 GiB (13%)

  58. Title : English DTS-HD Master Audio 2.0 @ 1699 kbps

  59. Language : English

  60. Default : Yes

  61. Forced : No

  62. Text #1

  63. ID : 3

  64. Format : PGS

  65. Codec ID : S_HDMV/PGS

  66. Codec ID/Info : Picture based subtitle format used on BDs/HD-DVDs

  67. Duration : 2 h 16 min

  68. Bit rate : 17.8 kb/s

  69. Count of elements : 3490

  70. Stream size : 17.4 MiB (0%)

  71. Title : Chs/SUP 简体

  72. Language : Chinese

  73. Default : Yes

  74. Forced : No

  75. Text #2

  76. ID : 4

  77. Format : PGS

  78. Codec ID : S_HDMV/PGS

  79. Codec ID/Info : Picture based subtitle format used on BDs/HD-DVDs

  80. Duration : 2 h 16 min

  81. Bit rate : 18.4 kb/s

  82. Count of elements : 3490

  83. Stream size : 18.0 MiB (0%)

  84. Title : Cht/SUP 繁体

  85. Language : Chinese

  86. Default : No

  87. Forced : No

  88. Menu

  89. 00:00:00.000 : en:第 01 章

  90. 00:08:55.118 : en:第 02 章

  91. 00:15:10.243 : en:第 03 章

  92. 00:21:13.022 : en:第 04 章

  93. 00:25:52.718 : en:第 05 章

  94. 00:37:39.632 : en:第 06 章

  95. 00:46:14.188 : en:第 07 章

  96. 00:55:24.238 : en:第 08 章

  97. 01:06:09.132 : en:第 09 章

  98. 01:12:07.073 : en:第 10 章

  99. 01:20:52.181 : en:第 11 章

  100. 01:26:49.371 : en:第 12 章

  101. 01:31:23.103 : en:第 13 章

  102. 01:38:56.472 : en:第 14 章

  103. 01:46:04.650 : en:第 15 章

  104. 01:54:43.502 : en:第 16 章

  105. 02:05:01.911 : en:第 17 章

  106. 02:12:01.747 : en:第 18 章


复制代码



文件下载


除非特别注明,本文『亚利桑那之梦[简繁字幕].Arizona.Dream.1993.BluRay.1080p.DTS-HD.MA.2.0.x265.10bit-ALT 12.52GB』来源于互联网机器人自动抓取,非本站原创。 浮游电影网不对本文拥有版权,如有侵犯,请联系邮箱:fuyouu#yandex.com[#换成@]投诉。我们会在15个工作日内删除。 但烦请转载时请标明出处:“本文转载于『浮游电影网』,原文地址:https://www.fuyouu.com/22023.html

评论吧骚年!

发表你的见解   

昵称*

E-mail*(建议输入,以便收到博主回复的提示邮件)

验证码*

您可以使用eMule或eMule Mod(Windows)、aMule(Win、Linux、Mac)等软件下载eD2k链接。。
eMule收藏集(.emulecollection)文件是您选中的所有链接的列表文件。eMule可以直接下载它们。
按住SHIFT键选择可以选中多个选择框。
可用文件名和大小选择器来选择文件。
文件名选择器帮您根据文件名称或后缀来选择文件。不分大小写。
符号使用:
和:空格( )、+
不包含:-
或:|
转义:一对英文引号("");
匹配开头:^
匹配结尾:$
例如:
选中所有名称中包含有“eMule”或“0.49c”字眼,但不包含有“exe”字眼的:emule|0.49c -exe
选中所有名称的开头是“eMule”,结尾是“0.49c”的:^emule 0.49c$
选中所有名称中带有“eMule 0.49c”的(必须是“eMule 0.49c”,中间没有别的字符,不能是“eMule fake 0.49c”),需要转义:"emule 0.49c"
大小选择器帮您根据文件大小选择文件。