当前位置: 首页 >> 欧美电影 >> 雨中曲[HDR版本][中文字幕].Singing.in.the.Rain.1952.2160p.UHD.Bluray.HDR10.x265.DTS-HD.MA.5.1-PAGE 16.33GB >> 正文

雨中曲[HDR版本][中文字幕].Singing.in.the.Rain.1952.2160p.UHD.Bluray.HDR10.x265.DTS-HD.MA.5.1-PAGE 16.33GB

2022年05月08日 23:53:53     电影发布:来源于网络     电影分类:欧美电影     评论(0)    

◎译 名 雨中曲 / 万花嬉春(港 / 台) / 雨中情 / 百花嬉春

◎片 名 Singin' in the Rain

◎年 代 1952

◎产 地 美国

◎类 别 喜剧 / 爱情 / 歌舞

◎语 言 英语

◎上映日期 1952-04-11(美国)

◎IMDb链接 https://www.imdb.com/title/tt0045152/

◎豆瓣评分 9.1/10 (194636人评价)

◎豆瓣链接 https://movie.douban.com/subject/1293460/

◎片 长 103分钟

◎导 演 斯坦利·多南 Stanley Donen (id:1002835)

吉恩·凯利 Gene Kelly (id:1049621)

◎编 剧 贝蒂·康登 Betty Comden (id:1045606)

阿多夫·格林 Adolph Green (id:1037250)

◎演 员 吉恩·凯利 Gene Kelly (id:1049621)

唐纳德·奥康纳 Donald O'Connor (id:1049821)

黛比·雷诺斯 Debbie Reynolds (id:1000160)

简·哈根 Jean Hagen (id:1022873)

米勒德·米切尔 Millard Mitchell (id:1118885)

赛德·查里斯 Cyd Charisse (id:1032107)

达格拉斯·福雷 Douglas Fowley (id:1054260)

丽塔·莫雷诺 Rita Moreno (id:1036541)

道恩·艾达丝 Dawn Addams (id:1050314)

John Albright John Albright (id:1059360)

Betty Allen Betty Allen (id:1060088)

Bette Arlen Bette Arlen (id:1057975)

David Bair David Bair (id:1060811)

玛格丽特·伯特 Margaret Bert (id:1066208)

Madge Blake Madge Blake (id:1065774)

Gail Bonney Gail Bonney (id:1062802)

Chet Brandenburg Chet Brandenburg (id:1074404)

梅·克拉克 Mae Clarke (id:1025414)

Harry Cody Harry Cody (id:1067966)

Chick Collins Chick Collins (id:1067401)

Pat Conway Pat Conway (id:1068131)

Jeanne Coyne Jeanne Coyne (id:1069358)

Fred Datig Jr. Fred Datig Jr. (id:1089721)

凯·德利斯 Kay Deslys (id:1084544)

John Dodsworth John Dodsworth (id:1081070)

金·多诺万 King Donovan (id:1007204)

Phil Dunham Phil Dunham (id:1054492)

海伦·艾比罗克 Helen Eby-Rock (id:1086306)

Richard Emory Richard Emory (id:1085424)

Tommy Farrell Tommy Farrell (id:1080113)

Ernie Flatt Ernie Flatt (id:1088172)

贝丝·弗劳尔斯 Bess Flowers (id:1084601)

罗伯特·福捷 Robert Fortier (id:1042166)

Dan Foster Dan Foster (id:1088292)

Robert Foulk Robert Foulk (id:1089116)

Eric Freeman Eric Freeman (id:1079580)

凯瑟琳·弗里曼 Kathleen Freeman (id:1083132)

兰斯·富勒 Lance Fuller (id:1037369)

杰克·乔治 Jack George (id:1096987)

John George John George (id:1096107)

Inez Gorman Inez Gorman (id:1095720)

A. Cameron Grant A. Cameron Grant (id:1097917)

Beatrice Gray Beatrice Gray (id:1099270)

William Hamel William Hamel (id:1097446)

山姆·哈里斯 Sam Harris (id:1100419)

Timmy Hawkins Timmy Hawkins (id:1099682)

Jean Heremans Jean Heremans (id:1095030)

斯图尔特·霍姆斯 Stuart Holmes (id:1091930)

肯纳G.肯普 Kenner G. Kemp (id:1104065)

迈克·拉里 Mike Lally (id:1107012)

乔伊·兰辛 Joi Lansing (id:1000629)

William F. Leicester William F. Leicester (id:1120086)

Sylvia Lewis Sylvia Lewis (id:1118241)

伦尼·海顿 Lennie Hayton (id:1005283)

沃尔特·普朗凯特 Walter Plunkett (id:1019459)

道格拉斯·希勒 Douglas Shearer (id:1140891)

◎简 介

1927年,由唐·洛克伍德(吉恩·凯利 饰)和丽娜·雷蒙德(简·哈根 饰)主演的《皇家流氓》在好莱坞首映。由于丽娜刺耳的嗓音无法匹配其夺目的外貌,为了维护明星形象,宣传部只得安排唐一人讲话。首映后,由于钢琴师科斯莫·布朗(唐纳德·奥康纳 饰)的汽车爆胎,为了躲避疯狂的影迷,唐意外结识了能歌善舞的凯西·塞尔登(黛比·雷诺斯 饰),并被其深深吸引。数周后,首部有声电影《爵士歌手》爆红,唐与丽娜的新片《决斗骑士》不得不临时改变拍摄方式,而凯西也成为歌舞片演员。因预映口碑极差,科斯莫提议将《决斗骑士》改为歌舞片,由凯西为丽娜配音,凯西积极附议。与凯西吻别后,唐心花怒放,在雨中载歌载舞。科斯莫的计划能否奏效?幕后的凯西能否走到台前接受观众的掌声?

◎获奖情况 (共4项)

第25届奥斯卡金像奖 (1953)

最佳女配角(提名)

└──简·哈根 (id:1022873)

歌舞片最佳配乐(提名)

└──伦尼·海顿 (id:1005283)

第10届金球奖 (1953)

电影类 最佳音乐/喜剧片(提名)

电影类 音乐/喜剧片最佳男主角

└──唐纳德·奥康纳 (id:1049821)

  1. ##### MediaInfo ######

  2. General

  3. Unique ID : 104750758049557793303171843823416420963 (0x4ECE431D14BB35BFE05C41B2F590AA63)

  4. Complete name : Singing.in.the.Rain.1952.2160p.UHD.Bluray.HDR10.x265.DTS-HD.MA.5.1-PAGE.mkv

  5. Format : Matroska

  6. Format version : Version 4

  7. File size : 16.3 GiB

  8. Duration : 1 h 42 min

  9. Overall bit rate mode : Variable

  10. Overall bit rate : 22.7 Mb/s

  11. Encoded date : UTC 2022-05-06 04:12:59

  12. Writing application : mkvmerge v67.0.0 ('Under Stars') 64-bit

  13. Writing library : libebml v1.4.2 + libmatroska v1.6.4

  14. Cover : Yes

  15. Attachments : cover.jpg

  16. Video

  17. ID : 1

  18. Format : HEVC

  19. Format/Info : High Efficiency Video Coding

  20. Format profile : Main [email protected]@High

  21. HDR format : SMPTE ST 2086, HDR10 compatible

  22. Codec ID : V_MPEGH/ISO/HEVC

  23. Duration : 1 h 42 min

  24. Bit rate : 19.4 Mb/s

  25. Width : 3 840 pixels

  26. Height : 2 160 pixels

  27. Display aspect ratio : 16:9

  28. Frame rate mode : Constant

  29. Frame rate : 23.976 (24000/1001/53354) FPS

  30. Color space : YUV

  31. Chroma subsampling : 4:2:0

  32. Bit depth : 10 bits

  33. Bits/(Pixel*Frame) : 0.098

  34. Stream size : 13.9 GiB (85%)

  35. Writing library : x265 3.3+3-g8f8e332f1+29:[Windows][#Erg`Djh#][@Yuuki] made by @Dongfangbubai

  36. Encoding settings : rc=crf / crf=18.0000 / qcomp=0.70 / qpstep=4 / stats-write=0 / stats-read=0 / vbv-maxrate=160000 / vbv-bufsize=160000 / vbv-init=0.9 / crf-max=0.0 / crf-min=0.0 / no-lossless / no-cu-lossless / aq-mode=3 / aq-strength=0.80 / cbqpoffs=-3 / crqpoffs=-3 / ipratio=1.40 / pbratio=1.30 / psy-rd=2.00 / psy-rdoq=3.00 / deblock=-1:-1 / ref=5 / limit-refs=0 / no-limit-modes / bframes=8 / b-adapt=2 / bframe-bias=0 / b-pyramid / b-intra / weightp / weightb / min-keyint=23 / max-keyint=240 / rc-lookahead=60 / gop-lookahead=0 / NTMzNTQ=uuDQuD2mJt9fsCf / scenecut=40 / hist-scenecut=0 / radl=0 / max-cu-size=32 / min-cu-size=8 / me=3 / subme=4 / merange=25 / rdoq-level=2 / rd=4 / rdpenalty=1 / dynamic-rd=0.00 / no-rd-refine / ----- / no-cutree / no-sao / no-rect / no-amp / no-open-gop / wpp / pmode / pme / no-psnr / no-ssim / nr-intra=0 / nr-inter=0 / no-constrained-intra / no-strong-intra-smoothing / max-tu-size=32 / tu-inter-depth=2 / tu-intra-depth=2 / limit-tu=0 / qg-size=32 / qpmax=69 / qpmin=0 / ----- / cpuid=533541176575 / frame-threads=6 / numa-pools=54,- / log-level=2 / input-csp=1 / input-res=3840x2160 / interlace=0 / level-idc=0 / high-tier=1 / uhd-bd=0 / no-allow-non-conformance / repeat-headers / no-aud / hrd / info / hash=0 / no-temporal-layers / lookahead-slices=0 / no-splice / no-intra-refresh / no-ssim-rd / signhide / no-tskip / max-merge=3 / temporal-mvp / no-frame-dup / no-hme / no-analyze-src-pics / no-sao-non-deblock / selective-sao=0 / no-early-skip / no-rskip / no-fast-intra / no-tskip-fast / no-splitrd-skip / zone-count=0 / no-strict-cbr / no-rc-grain / no-const-vbv / sar=0 / overscan=0 / videoformat=5 / range=0 / colorprim=9 / transfer=16 / colormatrix=9 / chromaloc=0 / display-window=0 / master-display=G(13250,34500)B(7500,3000)R(34000,16000)WP(15635,16450)L(10000000,1) / cll=992,103 / min-luma=0 / max-luma=1023 / log2-max-poc-lsb=8 / vui-timing-info / vui-hrd-info / slices=1 / no-opt-qp-pps / no-opt-ref-list-length-pps / no-multi-pass-opt-rps / scenecut-bias=0.05 / hist-threshold=0.01 / no-opt-cu-delta-qp / no-aq-motion / hdr10 / hdr10-opt / no-dhdr10-opt / no-idr-recovery-sei / analysis-reuse-level=0 / analysis-save-reuse-level=0 / analysis-load-reuse-level=0 / scale-factor=0 / refine-intra=0 / refine-inter=0 / refine-mv=1 / refine-ctu-distortion=0 / no-limit-sao / ctu-info=0 / no-lowpass-dct / refine-analysis-type=0 / copy-pic=1 / max-ausize-factor=1.0 / no-dynamic-refine / no-single-sei / no-hevc-aq / no-svt / no-field / qp-adaptation-range=1.00 / no-scenecut-aware-qpconformance-window-offsets / right=0 / bottom=0 / NTMzNTQ=

  37. Default : Yes

  38. Forced : No

  39. Color range : Limited

  40. Color primaries : BT.2020

  41. Transfer characteristics : PQ

  42. Matrix coefficients : BT.2020 non-constant

  43. Mastering display color primaries : Display P3

  44. Mastering display luminance : min: 0.0001 cd/m2, max: 1000 cd/m2

  45. Maximum Content Light Level : 992 cd/m2

  46. Maximum Frame-Average Light Level : 103 cd/m2

  47. Audio

  48. ID : 2

  49. Format : DTS XLL

  50. Format/Info : Digital Theater Systems

  51. Commercial name : DTS-HD Master Audio

  52. Codec ID : A_DTS

  53. Duration : 1 h 42 min

  54. Bit rate mode : Variable

  55. Bit rate : 3 310 kb/s

  56. Channel(s) : 6 channels

  57. Channel layout : C L R Ls Rs LFE

  58. Sampling rate : 48.0 kHz

  59. Frame rate : 93.750 FPS (512 SPF)

  60. Bit depth : 24 bits

  61. Compression mode : Lossless

  62. Stream size : 2.38 GiB (15%)

  63. Language : English

  64. Default : Yes

  65. Forced : No

  66. Text

  67. ID : 3

  68. Format : PGS

  69. Muxing mode : zlib

  70. Codec ID : S_HDMV/PGS

  71. Codec ID/Info : Picture based subtitle format used on BDs/HD-DVDs

  72. Duration : 1 h 42 min

  73. Bit rate : 31.4 kb/s

  74. Count of elements : 2571

  75. Stream size : 23.0 MiB (0%)

  76. Language : Chinese

  77. Default : Yes

  78. Forced : No


文件下载


除非特别注明,本文『雨中曲[HDR版本][中文字幕].Singing.in.the.Rain.1952.2160p.UHD.Bluray.HDR10.x265.DTS-HD.MA.5.1-PAGE 16.33GB』来源于互联网机器人自动抓取,非本站原创。 浮游电影网不对本文拥有版权,如有侵犯,请联系邮箱:fuyouu#yandex.com[#换成@]投诉。我们会在15个工作日内删除。 但烦请转载时请标明出处:“本文转载于『浮游电影网』,原文地址:https://www.fuyouu.com/22008.html

评论吧骚年!

发表你的见解   

昵称*

E-mail*(建议输入,以便收到博主回复的提示邮件)

验证码*

您可以使用eMule或eMule Mod(Windows)、aMule(Win、Linux、Mac)等软件下载eD2k链接。。
eMule收藏集(.emulecollection)文件是您选中的所有链接的列表文件。eMule可以直接下载它们。
按住SHIFT键选择可以选中多个选择框。
可用文件名和大小选择器来选择文件。
文件名选择器帮您根据文件名称或后缀来选择文件。不分大小写。
符号使用:
和:空格( )、+
不包含:-
或:|
转义:一对英文引号("");
匹配开头:^
匹配结尾:$
例如:
选中所有名称中包含有“eMule”或“0.49c”字眼,但不包含有“exe”字眼的:emule|0.49c -exe
选中所有名称的开头是“eMule”,结尾是“0.49c”的:^emule 0.49c$
选中所有名称中带有“eMule 0.49c”的(必须是“eMule 0.49c”,中间没有别的字符,不能是“eMule fake 0.49c”),需要转义:"emule 0.49c"
大小选择器帮您根据文件大小选择文件。