当前位置: 首页 >> 国产电影 >> 蓝宇[国语配音/中文字幕].Lan.Yu.2001.1080p.BluRay.DTS.x265-10bit-ENTHD 5.67GB >> 正文

蓝宇[国语配音/中文字幕].Lan.Yu.2001.1080p.BluRay.DTS.x265-10bit-ENTHD 5.67GB

2022年05月08日 23:51:18     电影发布:来源于网络     电影分类:国产电影     评论(0)    

◎译 名 蓝宇 / Histoire d'hommes à Pékin / Lan Yu

◎片 名 藍宇

◎年 代 2001

◎产 地 中国大陆 / 中国香港

◎类 别 剧情 / 爱情 / 同性

◎语 言 汉语普通话

◎上映日期 2001-11-22(中国香港) / 2021-12-10(中国台湾重映)

◎IMDb链接 https://www.imdb.com/title/tt0292066/

◎豆瓣评分 8.4/10 (255098人评价)

◎豆瓣链接 https://movie.douban.com/subject/1308076/

◎片 长 86分钟(香港)

◎导 演 关锦鹏 Stanley Kwan (id:1028510)

◎编 剧 魏绍恩 Jimmy Ngai (id:1293122)

◎演 员 胡军 Jun Hu (id:1032540)

刘烨 Ye Liu (id:1000572)

苏瑾 Jin Su (id:1303298)

李华彤 Huatong Li (id:1327258)

卢芳 Fang Lu (id:1371286)

张永宁 Yongning Zhang (id:1301700)

李爽 Shuang Li (id:1327196)

李滨 Bin Li (id:1313659)

张少华 Shaohua Zhang (id:1274644)

赵敏芬 Minfen Zhao (id:1274558)

杜鹤 He Du (id:1370129)

关锦鹏 Stanley Kwan (id:1028510)

张永宁 Yongning Zhang (id:1301700)

李华彤 Huatong Li (id:1327258)

关小慧 Siu Wai Kwan (id:1330704)

张亚东 Yadong Zhang (id:1313093)

罗冬 Dong Luo (id:1353780)

杨涛 Tao Yang (id:1301418)

张健 Jian Zhang (id:1301694)

张叔平 William Chang (id:1274369)

张叔平 William Chang (id:1274369)

张叔平 William Chang (id:1274369)

王学义 Xueyi Wang (id:1300419)

◎简 介

陈捍东(胡军)和蓝宇(刘烨)的爱情始于一场性交易,其时,蓝宇是为生活所迫决定出卖自己肉体的清纯大学生,陈捍东则是情场老手,惯做“花花公子”的他虽对特别的蓝宇怦然心动,却也认为蓝宇不过是他众多玩伴中的一个。慢慢地,随着两人交往的深入,陈捍东发现自己的心已在不知不觉间被蓝宇充满。可是他又不敢肯定,试图通过与女人结婚证明自己的“正常”,当求证到那不过是错觉一场时,蓝宇早已消失在茫茫人海。

真正的爱情故事总是令旁观者唏嘘感叹,无论它是异性间还是同性间的。而令旁观者感动的爱情,往往又是同勇敢、固执、单纯等简单却难拥有的质量联系在一起的,蓝宇(和捍东)正属稀少的那类人,所以他们的爱情才显珍贵。

◎获奖情况 (共27项)

第54届戛纳电影节 (2001)

一种关注单元 一种关注大奖(提名)

└──关锦鹏 (id:1028510)

第38届台北金马影展 (2001)

金马奖 最佳剧情片(提名)

金马奖 最佳导演

└──关锦鹏 (id:1028510)

金马奖 最佳男主角

└──刘烨 (id:1000572)

金马奖 最佳男主角(提名)

└──胡军 (id:1032540)

金马奖 最佳改编剧本

└──魏绍恩 (id:1293122)

金马奖 最佳摄影(提名)

└──杨涛 (id:1301418)

金马奖 最佳美术设计(提名)

└──张叔平 (id:1274369)

金马奖 最佳造型设计(提名)

└──张叔平 (id:1274369)

金马奖 最佳剪辑

└──张叔平 (id:1274369)

金马奖 最佳音效(提名)

└──王学义 (id:1300419)

观众票选最佳影片

第21届香港电影金像奖 (2002)

最佳电影(提名)

最佳导演(提名)

└──关锦鹏 (id:1028510)

最佳编剧(提名)

└──魏绍恩 (id:1293122)

最佳男主角(提名)

最佳女配角(提名)

└──苏瑾 (id:1303298)

最佳摄影(提名)

最佳剪接(提名)

└──张叔平 (id:1274369)

最佳美术指导(提名)

└──张叔平 (id:1274369)

最佳服装造型设计(提名)

└──张叔平 (id:1274369)

最佳原创电影音乐(提名)

└──张亚东 (id:1313093)

第2届华语电影传媒大奖 (2002)

最佳男演员

└──胡军 (id:1032540)

最受欢迎华语电影

最受欢迎男演员

└──胡军 (id:1032540)

最佳电影(提名)

最佳导演(提名)

└──关锦鹏 (id:1028510)

  1. ##### MediaInfo ######

  2. General

  3. Unique ID : 147433106572505599923621951356375014624 (0x6EEA955E90B8FE1DFD6C8F20873A1CE0)

  4. Complete name : Lan.Yu.2001.1080p.BluRay.DTS.x265-10bit-ENTHD.mkv

  5. Format : Matroska

  6. Format version : Version 4

  7. File size : 5.67 GiB

  8. Duration : 1 h 26 min

  9. Overall bit rate : 9 365 kb/s

  10. Movie name : Lan Yu 2001 1080p BluRay DTS x265-10bit-HDS

  11. Encoded date : UTC 2022-05-07 08:46:04

  12. Writing application : mkvmerge v67.0.0 ('Under Stars') 64-bit

  13. Writing library : libebml v1.4.2 + libmatroska v1.6.4

  14. Video

  15. ID : 1

  16. Format : HEVC

  17. Format/Info : High Efficiency Video Coding

  18. Format profile : Main [email protected]@High

  19. Codec ID : V_MPEGH/ISO/HEVC

  20. Duration : 1 h 26 min

  21. Bit rate : 7 825 kb/s

  22. Width : 1 920 pixels

  23. Height : 1 036 pixels

  24. Display aspect ratio : 1.85:1

  25. Frame rate mode : Constant

  26. Frame rate : 24.000 FPS

  27. Color space : YUV

  28. Chroma subsampling : 4:2:0

  29. Bit depth : 10 bits

  30. Bits/(Pixel*Frame) : 0.164

  31. Stream size : 4.74 GiB (84%)

  32. Title : @HDSky

  33. Writing library : x265 - H.265/HEVC codec

  34. Default : Yes

  35. Forced : No

  36. Audio

  37. ID : 2

  38. Format : DTS

  39. Format/Info : Digital Theater Systems

  40. Codec ID : A_DTS

  41. Duration : 1 h 26 min

  42. Bit rate mode : Constant

  43. Bit rate : 1 509 kb/s

  44. Channel(s) : 6 channels

  45. Channel layout : C L R Ls Rs LFE

  46. Sampling rate : 48.0 kHz

  47. Frame rate : 93.750 FPS (512 SPF)

  48. Bit depth : 24 bits

  49. Compression mode : Lossy

  50. Stream size : 936 MiB (16%)

  51. Title : English

  52. Language : English

  53. Default : Yes

  54. Forced : No

  55. Text

  56. ID : 3

  57. Format : PGS

  58. Muxing mode : zlib

  59. Codec ID : S_HDMV/PGS

  60. Codec ID/Info : Picture based subtitle format used on BDs/HD-DVDs

  61. Duration : 1 h 20 min

  62. Bit rate : 45.9 kb/s

  63. Count of elements : 2018

  64. Stream size : 26.5 MiB (0%)

  65. Title : CHT

  66. Language : Chinese

  67. Default : Yes

  68. Forced : No

  69. Menu

  70. 00:00:00.000 : en:第 01 章

  71. 00:05:50.250 : en:第 02 章

  72. 00:10:55.417 : en:第 03 章

  73. 00:17:27.417 : en:第 04 章

  74. 00:25:12.000 : en:第 05 章

  75. 00:33:31.917 : en:第 06 章

  76. 00:40:41.583 : en:第 07 章

  77. 00:49:56.458 : en:第 08 章

  78. 00:55:51.000 : en:第 09 章

  79. 01:04:14.417 : en:第 10 章

  80. 01:10:44.833 : en:第 11 章

  81. 01:18:45.250 : en:第 12 章


复制代码



文件下载


除非特别注明,本文『蓝宇[国语配音/中文字幕].Lan.Yu.2001.1080p.BluRay.DTS.x265-10bit-ENTHD 5.67GB』来源于互联网机器人自动抓取,非本站原创。 浮游电影网不对本文拥有版权,如有侵犯,请联系邮箱:fuyouu#yandex.com[#换成@]投诉。我们会在15个工作日内删除。 但烦请转载时请标明出处:“本文转载于『浮游电影网』,原文地址:https://www.fuyouu.com/22005.html

评论吧骚年!

发表你的见解   

昵称*

E-mail*(建议输入,以便收到博主回复的提示邮件)

验证码*

您可以使用eMule或eMule Mod(Windows)、aMule(Win、Linux、Mac)等软件下载eD2k链接。。
eMule收藏集(.emulecollection)文件是您选中的所有链接的列表文件。eMule可以直接下载它们。
按住SHIFT键选择可以选中多个选择框。
可用文件名和大小选择器来选择文件。
文件名选择器帮您根据文件名称或后缀来选择文件。不分大小写。
符号使用:
和:空格( )、+
不包含:-
或:|
转义:一对英文引号("");
匹配开头:^
匹配结尾:$
例如:
选中所有名称中包含有“eMule”或“0.49c”字眼,但不包含有“exe”字眼的:emule|0.49c -exe
选中所有名称的开头是“eMule”,结尾是“0.49c”的:^emule 0.49c$
选中所有名称中带有“eMule 0.49c”的(必须是“eMule 0.49c”,中间没有别的字符,不能是“eMule fake 0.49c”),需要转义:"emule 0.49c"
大小选择器帮您根据文件大小选择文件。