当前位置: 首页 >> 国产电影 >> 齐天大圣[杜比视界版本][国语配音/中文字幕].Qi.Tian.Da.Sheng.2022.2160p.DV.WEB-DL.H265.DDP2.0-CTRLWEB 6.38GB >> 正文

齐天大圣[杜比视界版本][国语配音/中文字幕].Qi.Tian.Da.Sheng.2022.2160p.DV.WEB-DL.H265.DDP2.0-CTRLWEB 6.38GB

2022年05月08日 23:35:38     电影发布:来源于网络     电影分类:国产电影     评论(0)    

◎译 名 齐天大圣

◎年 代 2022

◎产 地 中国大陆

◎类 别 奇幻 / 古装

◎上映日期 2022-05-07(中国大陆)

◎IMDb链接 https://www.imdb.com/title//

◎豆瓣链接 https://movie.douban.com/subject/35030789/

◎导 演 姜晓通 Xiaotong Jiang (id:1454475)

◎演 员 谢苗 Miu Tse (id:1314627)

徐冬冬 Dongdong Xu (id:1315463)

安峻岐 Junqi An (id:1400886)

赵云天 Yuntian Zhao (id:1420099)

陈翊曈 Yitong Chen (id:1439533)

◎简 介

影片讲述孙悟空逃出五指山后带着被欺压的妖族兄弟们再闹天宫的故事。400年前齐天大圣(谢苗饰)率领妖界攻打天庭,斗二郎戏众仙,后被如来降服镇压五指山下,一代妖王就此陨落。之后的四百年间,妖界受到仙界打压一蹶不振,400年后孙悟空在过路的小女孩阿一(陈翊曈 饰)帮助下虽逃出五指山,却也风光不再,被昔日兄弟嫌弃,在四处受难中逐渐迷失自我。《齐天大圣》围绕孙悟空的自我牺牲、自我救赎展开,燃点十足,以喜剧方式处理深刻人生问题,让观众笑中带泪。此次影片以南天门、西牛贺洲为主场景,众多西游经典人物都会悉数登场,热血对抗与催人泪下的场景将会带给观众最具独特的视觉享受。

  1. ##### MediaInfo ######

  2. General

  3. Complete name : Qi.Tian.Da.Sheng.2022.2160p.DV.WEB-DL.H265.DDP2.0-CTRLWEB.mp4

  4. Format : MPEG-4

  5. Format profile : Base Media

  6. Codec ID : isom (isom)

  7. File size : 6.38 GiB

  8. Duration : 1 h 20 min

  9. Overall bit rate : 11.3 Mb/s

  10. Encoded date : UTC 2022-05-07 12:41:37

  11. Tagged date : UTC 2022-05-07 12:41:37

  12. Writing application : GPAC-2.0-rev0-g418db414-master

  13. Video

  14. ID : 1

  15. Format : HEVC

  16. Format/Info : High Efficiency Video Coding

  17. Format profile : Main [email protected]@Main

  18. HDR format : Dolby Vision, Version 1.0, dvhe.05.06, BL+RPU

  19. Codec ID : hev1

  20. Codec ID/Info : High Efficiency Video Coding

  21. Duration : 1 h 20 min

  22. Bit rate : 11.2 Mb/s

  23. Maximum bit rate : 36.4 Mb/s

  24. Width : 3 840 pixels

  25. Height : 1 600 pixels

  26. Display aspect ratio : 2.40:1

  27. Frame rate mode : Variable

  28. Frame rate : 24.000 FPS

  29. Minimum frame rate : 23.994 FPS

  30. Maximum frame rate : 24.006 FPS

  31. Color space : YUV

  32. Chroma subsampling : 4:2:0

  33. Bit depth : 10 bits

  34. Bits/(Pixel*Frame) : 0.076

  35. Stream size : 6.33 GiB (99%)

  36. Default : Yes

  37. Alternate group : 1

  38. Tagged date : UTC 2022-05-07 12:42:03

  39. Color range : Full

  40. mdhd_Duration : 4848792

  41. Codec configuration box : hvcC+dvcC

  42. Audio

  43. ID : 2

  44. Format : E-AC-3

  45. Format/Info : Enhanced AC-3

  46. Commercial name : Dolby Digital Plus

  47. Codec ID : ec-3

  48. Duration : 1 h 20 min

  49. Bit rate mode : Constant

  50. Bit rate : 96.0 kb/s

  51. Maximum bit rate : 101 kb/s

  52. Channel(s) : 2 channels

  53. Channel layout : L R

  54. Sampling rate : 48.0 kHz

  55. Frame rate : 31.250 FPS (1536 SPF)

  56. Compression mode : Lossy

  57. Stream size : 55.5 MiB (1%)

  58. Title : 普通话 Mandarin DDP2.0

  59. Language : Chinese

  60. Service kind : Complete Main

  61. Default : Yes

  62. Alternate group : 1

  63. Encoded date : UTC 2022-05-07 12:42:03

  64. Tagged date : UTC 2022-05-07 12:42:03


复制代码



文件下载


除非特别注明,本文『齐天大圣[杜比视界版本][国语配音/中文字幕].Qi.Tian.Da.Sheng.2022.2160p.DV.WEB-DL.H265.DDP2.0-CTRLWEB 6.38GB』来源于互联网机器人自动抓取,非本站原创。 浮游电影网不对本文拥有版权,如有侵犯,请联系邮箱:fuyouu#yandex.com[#换成@]投诉。我们会在15个工作日内删除。 但烦请转载时请标明出处:“本文转载于『浮游电影网』,原文地址:https://www.fuyouu.com/21994.html

评论吧骚年!

发表你的见解   

昵称*

E-mail*(建议输入,以便收到博主回复的提示邮件)

验证码*

您可以使用eMule或eMule Mod(Windows)、aMule(Win、Linux、Mac)等软件下载eD2k链接。。
eMule收藏集(.emulecollection)文件是您选中的所有链接的列表文件。eMule可以直接下载它们。
按住SHIFT键选择可以选中多个选择框。
可用文件名和大小选择器来选择文件。
文件名选择器帮您根据文件名称或后缀来选择文件。不分大小写。
符号使用:
和:空格( )、+
不包含:-
或:|
转义:一对英文引号("");
匹配开头:^
匹配结尾:$
例如:
选中所有名称中包含有“eMule”或“0.49c”字眼,但不包含有“exe”字眼的:emule|0.49c -exe
选中所有名称的开头是“eMule”,结尾是“0.49c”的:^emule 0.49c$
选中所有名称中带有“eMule 0.49c”的(必须是“eMule 0.49c”,中间没有别的字符,不能是“eMule fake 0.49c”),需要转义:"emule 0.49c"
大小选择器帮您根据文件大小选择文件。