当前位置: 首页 >> 国产电影 >> 魔宫魅影[国语配音/中文字幕].Phantom.of.the.Theatre.2016.2160p.WEB-DL.H265.AAC-CTRLWEB 3.17GB >> 正文

魔宫魅影[国语配音/中文字幕].Phantom.of.the.Theatre.2016.2160p.WEB-DL.H265.AAC-CTRLWEB 3.17GB

2022年05月08日 23:34:48     电影发布:来源于网络     电影分类:国产电影     评论(0)    

◎译 名 魔宫魅影 / 魂断霞飞路 / 魔都18号 / 魔都魅影 / 魔都14号 / Phantom of the Theatre

◎年 代 2016

◎产 地 中国大陆 / 中国香港

◎类 别 剧情 / 爱情 / 惊悚

◎语 言 汉语普通话

◎上映日期 2016-04-29(中国大陆)

◎IMDb链接 https://www.imdb.com/title/tt5639650/

◎豆瓣评分 4.7/10 (12141人评价)

◎豆瓣链接 https://movie.douban.com/subject/26220725/

◎片 长 104分钟

◎导 演 叶伟民 Raymond Yip Wai-Man (id:1275004)

◎编 剧 文隽 Manfred Wong (id:1274823)

杨梅媛 Sakura Yang (id:1317862)

李晶凌 Jingling Li (id:1357241)

◎演 员 林心如 Ruby Lin (id:1005214)

杨祐宁 Yo Yang (id:1051157)

任达华 Simon Yam (id:1031194)

黄幻 Huan Huang (id:1314660)

景岗山 Gangshan Jing (id:1313351)

林江国 Jiangguo Lin (id:1316735)

孟瑶 Yao Meng (id:1314726)

张子枫 Zifeng Zhang (id:1274254)

黄磊 Lei Huang (id:1037715)

李菁 Jing Li (id:1313907)

何沄伟 Yunwei He (id:1313982)

李晶凌 Jingling Li (id:1357241)

夏文汐 Patricia Ha (id:1274302)

许一顶 Landy Xu (id:1401838)

黄国雄 Samuel Wong (id:1426248)

马晶晶 Jingjing Ma (id:1410276)

李忠志 Chung Chi Li (id:1014763)

◎简 介

故事发生在三十年代的上海,顾维邦(杨佑宁 饰)是一位名不见经传的小导演,一次偶然中,他遇见了名为梦思凡(林心如 饰)的女明星,两人一拍即合,决定拍摄一部爱情惊悚电影,顾维邦为其取名为《夜半歌声》。

一切都进行的很顺利,演员们纷纷入驻剧组,只等待开拍。顾维邦将拍摄地点选在了丽宫电影院,虽然很多人告诫他这里曾经发生过耸人听闻的灵异事件,不宜久留,但固执的顾维邦毫不在意。果不其然,没过多久,剧组里就接连发生了许多怪事,直到扮演男主角的演员离奇死亡,众人才发现事情已经如此严重。顾维邦的未婚妻麦丽斯(黄幻 饰)来到剧组想要调查事件的真相,却牵扯出了一段顾维邦和梦思凡之间的尘封旧事。

  1. ##### MediaInfo ######

  2. General

  3. Complete name : Phantom.of.the.Theatre.2016.2160p.WEB-DL.H265.AAC-CTRLWEB.mp4

  4. Format : MPEG-4

  5. Format profile : Base Media

  6. Codec ID : isom (isom/iso2/mp41)

  7. File size : 3.17 GiB

  8. Duration : 1 h 43 min

  9. Overall bit rate : 4 408 kb/s

  10. Recorded date : 2022-05-07T11:52:55.6620251+08:00

  11. Writing application : Lavf59.16.100

  12. Video

  13. ID : 1

  14. Format : HEVC

  15. Format/Info : High Efficiency Video Coding

  16. Format profile : [email protected]@Main

  17. Codec ID : hev1

  18. Codec ID/Info : High Efficiency Video Coding

  19. Duration : 1 h 43 min

  20. Bit rate : 4 212 kb/s

  21. Width : 3 840 pixels

  22. Height : 1 632 pixels

  23. Display aspect ratio : 2.35:1

  24. Frame rate mode : Constant

  25. Frame rate : 24.000 FPS

  26. Color space : YUV

  27. Chroma subsampling : 4:2:0

  28. Bit depth : 8 bits

  29. Bits/(Pixel*Frame) : 0.028

  30. Stream size : 3.03 GiB (96%)

  31. Codec configuration box : hvcC

  32. Audio

  33. ID : 2

  34. Format : AAC LC

  35. Format/Info : Advanced Audio Codec Low Complexity

  36. Codec ID : mp4a-40-2

  37. Duration : 1 h 43 min

  38. Bit rate mode : Constant

  39. Bit rate : 192 kb/s

  40. Channel(s) : 2 channels

  41. Channel layout : L R

  42. Sampling rate : 44.1 kHz

  43. Frame rate : 43.066 FPS (1024 SPF)

  44. Compression mode : Lossy

  45. Stream size : 140 MiB (4%)

  46. Default : Yes

  47. Alternate group : 1


复制代码



文件下载


除非特别注明,本文『魔宫魅影[国语配音/中文字幕].Phantom.of.the.Theatre.2016.2160p.WEB-DL.H265.AAC-CTRLWEB 3.17GB』来源于互联网机器人自动抓取,非本站原创。 浮游电影网不对本文拥有版权,如有侵犯,请联系邮箱:fuyouu#yandex.com[#换成@]投诉。我们会在15个工作日内删除。 但烦请转载时请标明出处:“本文转载于『浮游电影网』,原文地址:https://www.fuyouu.com/21993.html

评论吧骚年!

发表你的见解   

昵称*

E-mail*(建议输入,以便收到博主回复的提示邮件)

验证码*

您可以使用eMule或eMule Mod(Windows)、aMule(Win、Linux、Mac)等软件下载eD2k链接。。
eMule收藏集(.emulecollection)文件是您选中的所有链接的列表文件。eMule可以直接下载它们。
按住SHIFT键选择可以选中多个选择框。
可用文件名和大小选择器来选择文件。
文件名选择器帮您根据文件名称或后缀来选择文件。不分大小写。
符号使用:
和:空格( )、+
不包含:-
或:|
转义:一对英文引号("");
匹配开头:^
匹配结尾:$
例如:
选中所有名称中包含有“eMule”或“0.49c”字眼,但不包含有“exe”字眼的:emule|0.49c -exe
选中所有名称的开头是“eMule”,结尾是“0.49c”的:^emule 0.49c$
选中所有名称中带有“eMule 0.49c”的(必须是“eMule 0.49c”,中间没有别的字符,不能是“eMule fake 0.49c”),需要转义:"emule 0.49c"
大小选择器帮您根据文件大小选择文件。