当前位置: 首页 >> 欧美电影 >> 豺狼计划[简繁英字幕].Cry.Wolf.2005.BluRay.1080p-MiniHD 10.25GB >> 正文

豺狼计划[简繁英字幕].Cry.Wolf.2005.BluRay.1080p-MiniHD 10.25GB

2022年05月08日 23:33:54     电影发布:来源于网络     电影分类:欧美电影     评论(0)    

◎译 名 豺狼计划 / 哭泣杀狼 / 恶狼ID / 狼来了 / 狼踪 / 哭狼

◎片 名 Cry Wolf

◎年 代 2005

◎产 地 美国

◎类 别 悬疑 / 惊悚 / 犯罪

◎语 言 英语

◎上映日期 2005-09-16

◎IMDb链接 https://www.imdb.com/title/tt0384286/

◎豆瓣评分 7.2/10 (37459人评价)

◎豆瓣链接 https://movie.douban.com/subject/1422950/

◎片 长 90 分钟

◎导 演 杰夫·瓦德洛 Jeff Wadlow (id:1300241)

◎编 剧 杰夫·瓦德洛 Jeff Wadlow (id:1300241)

◎演 员 朱利安·莫里斯 Julian Morris (id:1013766)

林蒂·布丝 Lindy Booth (id:1000180)

贾德·帕达里克 Jared Padalecki (id:1053555)

乔恩·邦·乔维 Jon Bon Jovi (id:1031970)

桑德拉·麦考伊 Sandra McCoy (id:1209571)

Aaron Fiore (id:1223582)

Matthew Miles Carter (id:1223937)

尼古拉斯·帕森斯 Nicholas X. Parsons (id:1236921)

Ranel Johnson (id:1254587)

Ethan Cohn Ethan Cohn (id:1201641)

Zach Dulli Zach Dulli (id:1194449)

Elizabeth Domin Elizabeth Domin (id:1180457)

盖瑞·科尔 Gary Cole (id:1049563)

安东尼奥·查丽蒂 Antonio D. Charity (id:1073264)

贾维斯·W.乔治 Jarvis W. George (id:1094391)

安娜·迪佛·史密斯 Anna Deavere Smith (id:1153867)

克里斯蒂·吴 Kristy Wu (id:1161523)

道格·里曼 Doug Liman (id:1022741)

麦克尔·旺德迈彻 Michael Wandmacher (id:1041894)

Fern Champion Fern Champion (id:1280416)

杰弗里·哈利 Geoffrey Haley (id:1285836)

帕特里克·克兰斯 Patrick Clancey (id:1071903)

◎简 介

“狼吃羊”的游戏有三条准则:一是避免怀疑;二是欺骗朋友;三是消灭朋友。

欧文?马修斯(朱利安?莫里斯 饰)转到了西湖中学学习,在这里,他认识了新朋友,道喆(林迪?布斯饰)、急性子的汤姆(杰尔德?帕达勒基饰)等人。这些人都是一个“撒谎俱乐部”的成员,他们经常玩一个“狼吃羊”的游戏。这个游戏强调伪装与欺骗。

一天,一名年轻女子在学校附近被杀害,警方无任何线索。“撒谎俱乐部”决定把这个故事演变成一个“校园怪谈”。他们在网络上发布假消息,虚构出一个绰号“恶狼”的变态杀人犯,并称“下一个被害者将是学校里的同学。”

“撒谎俱乐部”的各位深深沉醉在编造谎言的快感之中,却不想谎言居然成真!同学一个个遭遇不幸。究竟“恶狼”是谁?

  1. ##### MediaInfo ######

  2. General

  3. Unique ID : 12353625232345411237224868544054428214 (0x94B38BFBC9E041F333B3F9EB4FA0236)

  4. Complete name : Cry.Wolf.2005.BluRay.1080p.x265.10bit.DDP7.1-MiniHD.mkv

  5. Format : Matroska

  6. Format version : Version 4

  7. File size : 10.3 GiB

  8. Duration : 1 h 30 min

  9. Overall bit rate : 16.3 Mb/s

  10. Movie name : Cry Wolf.2005.BluRay.1080p.x265.10bit.DDP7.1.MNHD-FRDS

  11. Encoded date : UTC 2022-05-07 13:33:17

  12. Writing application : mkvmerge v66.0.0 ('Josie') 64-bit

  13. Writing library : libebml v1.4.2 + libmatroska v1.6.4

  14. Video

  15. ID : 1

  16. Format : HEVC

  17. Format/Info : High Efficiency Video Coding

  18. Format profile : Main [email protected]@High

  19. Codec ID : V_MPEGH/ISO/HEVC

  20. Duration : 1 h 30 min

  21. Bit rate : 14.7 Mb/s

  22. Width : 1 916 pixels

  23. Height : 800 pixels

  24. Display aspect ratio : 2.40:1

  25. Frame rate mode : Constant

  26. Frame rate : 24.000 FPS

  27. Color space : YUV

  28. Chroma subsampling : 4:2:0

  29. Bit depth : 10 bits

  30. Bits/(Pixel*Frame) : 0.400

  31. Stream size : 9.27 GiB (90%)

  32. Writing library : x265 3.5+29-3415705dd:[Windows][MSVC 1930][64 bit] 10bit

  33. Encoding settings : cpuid=533541111039 / frame-threads=5 / numa-pools=32 / wpp / pmode / no-pme / no-psnr / no-ssim / log-level=2 / input-csp=1 / input-res=1916x800 / interlace=0 / total-frames=129665 / level-idc=0 / high-tier=1 / uhd-bd=0 / ref=6 / no-allow-non-conformance / no-repeat-headers / annexb / no-aud / no-eob / no-eos / no-hrd / info / hash=0 / no-temporal-layers / no-open-gop / min-keyint=1 / keyint=250 / gop-lookahead=0 / bframes=8 / b-adapt=2 / b-pyramid / bframe-bias=0 / rc-lookahead=100 / lookahead-slices=0 / NTMzNTQ=uuDQuD2mJt9fsCf / scenecut=40 / no-hist-scenecut / radl=0 / no-splice / no-intra-refresh / ctu=32 / min-cu-size=8 / no-rect / no-amp / max-tu-size=32 / tu-inter-depth=4 / tu-intra-depth=4 / limit-tu=0 / rdoq-level=2 / dynamic-rd=0.00 / no-ssim-rd / signhide / tskip / nr-intra=0 / nr-inter=0 / no-constrained-intra / no-strong-intra-smoothing / max-merge=5 / limit-refs=0 / no-limit-modes / me=3 / subme=7 / merange=57 / temporal-mvp / no-frame-dup / no-hme / weightp / weightb / no-analyze-src-pics / deblock=-3:-3 / no-sao / no-sao-non-deblock / rd=4 / selective-sao=0 / no-early-skip / no-rskip / no-fast-intra / no-tskip-fast / no-cu-lossless / b-intra / no-splitrd-skip / rdpenalty=0 / psy-rd=1.50 / psy-rdoq=1.00 / no-rd-refine / no-lossless / cbqpoffs=-2 / crqpoffs=-2 / rc=crf / crf=19.0 / qcomp=0.65 / qpstep=4 / stats-write=0 / stats-read=0 / vbv-maxrate=160000 / vbv-bufsize=160000 / vbv-init=0.9 / min-vbv-fullness=50.0 / max-vbv-fullness=80.0 / crf-max=0.0 / crf-min=0.0 / ipratio=1.30 / pbratio=1.20 / aq-mode=1 / aq-strength=0.80 / no-cutree / zone-count=0 / no-strict-cbr / qg-size=8 / no-rc-grain / qpmax=69 / qpmin=0 / no-const-vbv / sar=0 / overscan=0 / videoformat=5 / range=0 / colorprim=1 / transfer=1 / colormatrix=1 / chromaloc=0 / display-window=0 / cll=0,0 / min-luma=0 / max-luma=1023 / log2-max-poc-lsb=8 / vui-timing-info / vui-hrd-info / slices=1 / no-opt-qp-pps / no-opt-ref-list-length-pps / no-multi-pass-opt-rps / scenecut-bias=0.05 / hist-threshold=0.03 / no-opt-cu-delta-qp / no-aq-motion / no-hdr10 / no-hdr10-opt / no-dhdr10-opt / no-idr-recovery-sei / analysis-reuse-level=0 / analysis-save-reuse-level=0 / analysis-load-reuse-level=0 / scale-factor=0 / refine-intra=0 / refine-inter=0 / refine-mv=1 / refine-ctu-distortion=0 / no-limit-sao / ctu-info=0 / no-lowpass-dct / refine-analysis-type=0 / copy-pic=1 / max-ausize-factor=1.0 / no-dynamic-refine / no-single-sei / no-hevc-aq / no-svt / no-field / qp-adaptation-range=1.00 / scenecut-aware-qp=0conformance-window-offsets / right=0 / bottom=0 / NTMzNTQ= / decoder-max-rate=0 / no-vbv-live-multi-pass

  34. Default : Yes

  35. Forced : No

  36. Color range : Limited

  37. Color primaries : BT.709

  38. Transfer characteristics : BT.709

  39. Matrix coefficients : BT.709

  40. Audio

  41. ID : 2

  42. Format : E-AC-3

  43. Format/Info : Enhanced AC-3

  44. Commercial name : Dolby Digital Plus

  45. Format profile : Blu-ray Disc

  46. Codec ID : A_EAC3

  47. Duration : 1 h 30 min

  48. Bit rate mode : Constant

  49. Bit rate : 1 536 kb/s

  50. Channel(s) : 8 channels

  51. Channel layout : L R C LFE Ls Rs Lb Rb

  52. Sampling rate : 48.0 kHz

  53. Frame rate : 31.250 FPS (1536 SPF)

  54. Compression mode : Lossy

  55. Delay relative to video : 13 ms

  56. Stream size : 992 MiB (9%)

  57. Language : English

  58. Service kind : Complete Main

  59. Default : Yes

  60. Forced : No

  61. Text #1

  62. ID : 3

  63. Format : PGS

  64. Muxing mode : zlib

  65. Codec ID : S_HDMV/PGS

  66. Codec ID/Info : Picture based subtitle format used on BDs/HD-DVDs

  67. Duration : 1 h 21 min

  68. Bit rate : 33.4 kb/s

  69. Count of elements : 1449

  70. Stream size : 19.4 MiB (0%)

  71. Title : CHS

  72. Language : Chinese

  73. Default : Yes

  74. Forced : No

  75. Text #2

  76. ID : 4

  77. Format : PGS

  78. Muxing mode : zlib

  79. Codec ID : S_HDMV/PGS

  80. Codec ID/Info : Picture based subtitle format used on BDs/HD-DVDs

  81. Duration : 1 h 21 min

  82. Bit rate : 37.2 kb/s

  83. Count of elements : 1449

  84. Stream size : 21.6 MiB (0%)

  85. Title : CHT

  86. Language : Chinese

  87. Default : No

  88. Forced : No

  89. Text #3

  90. ID : 5

  91. Format : PGS

  92. Muxing mode : zlib

  93. Codec ID : S_HDMV/PGS

  94. Codec ID/Info : Picture based subtitle format used on BDs/HD-DVDs

  95. Duration : 1 h 21 min

  96. Bit rate : 45.0 kb/s

  97. Count of elements : 1441

  98. Stream size : 26.2 MiB (0%)

  99. Language : English

  100. Default : No

  101. Forced : No

  102. Menu

  103. 00:00:00.000 : en:Chapter 01

  104. 00:15:01.651 : en:Chapter 02

  105. 00:30:01.800 : en:Chapter 03

  106. 00:45:02.700 : en:Chapter 04

  107. 01:00:04.351 : en:Chapter 05

  108. 01:15:04.500 : en:Chapter 06


复制代码



文件下载


除非特别注明,本文『豺狼计划[简繁英字幕].Cry.Wolf.2005.BluRay.1080p-MiniHD 10.25GB』来源于互联网机器人自动抓取,非本站原创。 浮游电影网不对本文拥有版权,如有侵犯,请联系邮箱:fuyouu#yandex.com[#换成@]投诉。我们会在15个工作日内删除。 但烦请转载时请标明出处:“本文转载于『浮游电影网』,原文地址:https://www.fuyouu.com/21992.html

评论吧骚年!

发表你的见解   

昵称*

E-mail*(建议输入,以便收到博主回复的提示邮件)

验证码*

您可以使用eMule或eMule Mod(Windows)、aMule(Win、Linux、Mac)等软件下载eD2k链接。。
eMule收藏集(.emulecollection)文件是您选中的所有链接的列表文件。eMule可以直接下载它们。
按住SHIFT键选择可以选中多个选择框。
可用文件名和大小选择器来选择文件。
文件名选择器帮您根据文件名称或后缀来选择文件。不分大小写。
符号使用:
和:空格( )、+
不包含:-
或:|
转义:一对英文引号("");
匹配开头:^
匹配结尾:$
例如:
选中所有名称中包含有“eMule”或“0.49c”字眼,但不包含有“exe”字眼的:emule|0.49c -exe
选中所有名称的开头是“eMule”,结尾是“0.49c”的:^emule 0.49c$
选中所有名称中带有“eMule 0.49c”的(必须是“eMule 0.49c”,中间没有别的字符,不能是“eMule fake 0.49c”),需要转义:"emule 0.49c"
大小选择器帮您根据文件大小选择文件。