当前位置: 首页 >> 日韩电影 >> 绝密跟踪[国语配音/中文字幕].Cold.Eyes.2013.2160p.WEB-DL.H265.AAC-CTRLWEB 11.10GB >> 正文

绝密跟踪[国语配音/中文字幕].Cold.Eyes.2013.2160p.WEB-DL.H265.AAC-CTRLWEB 11.10GB

2022年05月08日 23:32:59     电影发布:来源于网络     电影分类:日韩电影     评论(0)    

◎译 名 绝密跟踪 / 监视者们 / 天眼跟踪(港) / 监谍任务(台) / 绝命追踪 / 监视 / Cold Eyes / ??

◎片 名 ????

◎年 代 2013

◎产 地 韩国

◎类 别 动作 / 犯罪

◎语 言 韩语

◎上映日期 2014-09-16(中国大陆) / 2013-07-03(韩国)

◎IMDb链接 https://www.imdb.com/title/tt2969656/

◎豆瓣评分 7.7/10 (88875人评价)

◎豆瓣链接 https://movie.douban.com/subject/20388224/

◎片 长 119分钟

◎导 演 曹义锡? Ui-seok Jo (id:1329979)

金丙书 Byung-seo Kim (id:1331113)

◎编 剧 曹义锡? Ui-seok Jo (id:1329979)

游乃海 Nai-Hoi Yau (id:1161310)

欧健儿 Kin-Yee Au (id:1303521)

◎演 员 薛景求 Kyung-gu Sol (id:1045576)

郑雨盛 Woo-sung Jung (id:1032365)

韩孝周 Hyo-joo Han (id:1032675)

李俊昊 Jun-ho Lee (id:1325125)

金秉玉 Byeong-ok Kim (id:1319357)

任达华 Simon Yam (id:1031194)

陈庆 Jin Gyeong (id:1336400)

卞约汉 Yo-han Byun (id:1344889)

李东镇 Lee Dong-jin (id:1380024)

李东辉 Dong-Hwi Lee (id:1353574)

郑贤 Jung Hyun (id:1442482)

朴智妍 Ji-Yeon Park (id:1448090)

孙敏锡 Min-seok Son (id:1456520)

姜申河 Shin-ha Kang (id:1456531)

李华静 Hwa-Jung Lee (id:1456536)

金智训 Ji-hoon Kim (id:1384287)

卞宇钟 Byeon-woo Jong (id:1436218)

朴智勋 Park Ji-hoon (id:1383729)

张元亨 Jang Won-hyeong (id:1388290)

李玄均 Hyeon-gyoon Lee (id:1388462)

张领圭 Young-gyu Jang (id:1329974)

金丙书 Byung-seo Kim (id:1331113)

吕景波 Kyung-bo Yeo (id:1339406)

许明行 Heo Myeong Haeng (id:1467965)

◎简 介

在韩国警察系统中存在着一个特殊的部门——监视班,该班有一群貌不惊人但拥有高超分析能力和跟踪技巧的探员组成。在班长黄尚钟(薛景求 饰)的指挥下,监视班一次次抓获狡猾罪犯,将他们绳之于法。某日,一腔热血的警员河允珠(韩孝珠 饰)以优异的成绩通过黄班长极为苛刻的测试,成为监视班的一员,代号“花猪”。虽然初出茅庐略显青涩,但花猪很快凭借其缜密的分析能力赢得班长的信任。与此同时,以詹姆士(郑雨盛 饰)为首的一组犯罪分子正策划对证券交易所的秘密行动。虽然已经获得罪犯的蛛丝马迹,但詹姆士极其狡猾,拥有超高的反侦查能力。

一系列高端的猫鼠游戏在闹市中央相继展开……

◎获奖情况 (共16项)

第34届韩国电影青龙奖 (2013)

最佳女主角

└──韩孝周 (id:1032675)

最佳男配角(提名)

└──郑雨盛 (id:1032365)

最佳摄影(提名)

最佳配乐(提名)

最佳照明(提名)

技术奖(提名)

第8届亚洲电影大奖 (2014)

最佳女主角(提名)

└──韩孝周 (id:1032675)

最佳男配角(提名)

└──郑雨盛 (id:1032365)

最佳摄影(提名)

最佳剪接

└──申玟暻 (id:1331917)

第50届百想艺术大赏 (2014)

电影类 最佳导演(提名)

电影类 最佳男主角(提名)

└──郑雨盛 (id:1032365)

电影类 最佳女配角

└──陈庆 (id:1336400)

第50届韩国电影大钟奖 (2013)

最佳影片(提名)

最佳服装(提名)

第4届豆瓣电影鑫像奖 (2014)

鑫豆单元 最佳韩国电影(提名)

  1. ##### MediaInfo ######

  2. General

  3. Complete name : Cold.Eyes.2013.2160p.WEB-DL.H265.AAC-CTRLWEB.mp4

  4. Format : MPEG-4

  5. Format profile : Base Media

  6. Codec ID : isom (isom/iso2/mp41)

  7. File size : 11.1 GiB

  8. Duration : 1 h 45 min

  9. Overall bit rate : 15.1 Mb/s

  10. Recorded date : 2022-05-07T12:45:06.3843002+08:00

  11. Writing application : Lavf59.16.100

  12. Video

  13. ID : 1

  14. Format : HEVC

  15. Format/Info : High Efficiency Video Coding

  16. Format profile : [email protected]@Main

  17. Codec ID : hev1

  18. Codec ID/Info : High Efficiency Video Coding

  19. Duration : 1 h 45 min

  20. Bit rate : 14.9 Mb/s

  21. Width : 3 840 pixels

  22. Height : 1 608 pixels

  23. Display aspect ratio : 2.40:1

  24. Frame rate mode : Constant

  25. Frame rate : 25.000 FPS

  26. Color space : YUV

  27. Chroma subsampling : 4:2:0

  28. Bit depth : 8 bits

  29. Bits/(Pixel*Frame) : 0.096

  30. Stream size : 10.9 GiB (99%)

  31. Codec configuration box : hvcC

  32. Audio

  33. ID : 2

  34. Format : AAC LC

  35. Format/Info : Advanced Audio Codec Low Complexity

  36. Codec ID : mp4a-40-2

  37. Duration : 1 h 45 min

  38. Bit rate mode : Constant

  39. Bit rate : 192 kb/s

  40. Channel(s) : 2 channels

  41. Channel layout : L R

  42. Sampling rate : 44.1 kHz

  43. Frame rate : 43.066 FPS (1024 SPF)

  44. Compression mode : Lossy

  45. Stream size : 143 MiB (1%)

  46. Default : Yes

  47. Alternate group : 1


复制代码



文件下载


除非特别注明,本文『绝密跟踪[国语配音/中文字幕].Cold.Eyes.2013.2160p.WEB-DL.H265.AAC-CTRLWEB 11.10GB』来源于互联网机器人自动抓取,非本站原创。 浮游电影网不对本文拥有版权,如有侵犯,请联系邮箱:fuyouu#yandex.com[#换成@]投诉。我们会在15个工作日内删除。 但烦请转载时请标明出处:“本文转载于『浮游电影网』,原文地址:https://www.fuyouu.com/21991.html

评论吧骚年!

发表你的见解   

昵称*

E-mail*(建议输入,以便收到博主回复的提示邮件)

验证码*

您可以使用eMule或eMule Mod(Windows)、aMule(Win、Linux、Mac)等软件下载eD2k链接。。
eMule收藏集(.emulecollection)文件是您选中的所有链接的列表文件。eMule可以直接下载它们。
按住SHIFT键选择可以选中多个选择框。
可用文件名和大小选择器来选择文件。
文件名选择器帮您根据文件名称或后缀来选择文件。不分大小写。
符号使用:
和:空格( )、+
不包含:-
或:|
转义:一对英文引号("");
匹配开头:^
匹配结尾:$
例如:
选中所有名称中包含有“eMule”或“0.49c”字眼,但不包含有“exe”字眼的:emule|0.49c -exe
选中所有名称的开头是“eMule”,结尾是“0.49c”的:^emule 0.49c$
选中所有名称中带有“eMule 0.49c”的(必须是“eMule 0.49c”,中间没有别的字符,不能是“eMule fake 0.49c”),需要转义:"emule 0.49c"
大小选择器帮您根据文件大小选择文件。