当前位置: 首页 >> 国产电影 >> 擦枪走火[国语配音/中文字幕].An.Accidental.Shot.of.Love.2015.2160p.WEB-DL.H265.AAC-CTRLWEB 10.77GB >> 正文

擦枪走火[国语配音/中文字幕].An.Accidental.Shot.of.Love.2015.2160p.WEB-DL.H265.AAC-CTRLWEB 10.77GB

2022年05月08日 23:29:23     电影发布:来源于网络     电影分类:国产电影     评论(0)    

◎译 名 擦枪走火 / An Accidental Shot of Love

◎年 代 2015

◎产 地 中国大陆

◎类 别 喜剧 / 爱情

◎语 言 汉语普通话

◎上映日期 2015-12-11(中国大陆)

◎IMDb链接 https://www.imdb.com/title/tt5460738/

◎豆瓣评分 4.5/10 (6417人评价)

◎豆瓣链接 https://movie.douban.com/subject/26050200/

◎片 长 89分钟(中国大陆) 132分钟(未删减版)

◎导 演 周伟 Wei Zhou (id:1322294)

◎编 剧 格格 Ge Ge (id:1352569)

古元 Yuan Gu (id:1352568)

◎演 员 喻恩泰 Entai Yu (id:1274271)

倪虹洁 Hongjie Ni (id:1274649)

王景春 Jingchun Wang (id:1275934)

李锐 Rui Li (id:1317204)

赵文琪 Wenqi Zhao (id:1313274)

邱泽 Roy Chiu (id:1266497)

曹云金 YunJin Cao (id:1318973)

斯琴高娃 Gaowa Siqin (id:1274429)

吴樾 Yue Wu (id:1314321)

刘畅 Lani Liu (id:1408611)

李永一 Yongyi Li (id:1379294)

◎简 介

蓝天(倪虹洁 饰)是一名网络主播,在一场相亲之中,她意外的被身为妇产科医生的相亲对象孙桡(邱泽 饰)诊断为已经怀孕。孩子的父亲,是龙套小演员黄斗(喻恩泰 饰),而此时两人已经分手,黄斗和名为菊子(赵文琪 饰)的女孩走到了一起。

得知蓝天怀孕的消息,善良正直的黄斗决心负起责任,他离开了菊子,回到了蓝天的身边,暂时没有能力抚养这个孩子的两人决定将孩子打掉,可是事到临头,蓝天却犹豫了。当黄斗得知两人爱情的结晶还好端端的待在蓝天的肚子里时,他决定要和蓝天好好的走下去。可是,就在这个节骨眼上,意外和麻烦接踵而至,蓝天失踪,不知所措的黄斗不知该何去何从。

  1. ##### MediaInfo ######

  2. General

  3. Complete name : An.Accidental.Shot.of.Love.2015.2160p.WEB-DL.H265.AAC-CTRLWEB.mp4

  4. Format : MPEG-4

  5. Format profile : Base Media

  6. Codec ID : isom (isom/iso2/mp41)

  7. File size : 10.8 GiB

  8. Duration : 1 h 30 min

  9. Overall bit rate mode : Variable

  10. Overall bit rate : 17.1 Mb/s

  11. Recorded date : 2022-05-06T14:07:34.8354019+08:00

  12. Writing application : Lavf59.16.100

  13. Video

  14. ID : 1

  15. Format : HEVC

  16. Format/Info : High Efficiency Video Coding

  17. Format profile : [email protected]@High

  18. Codec ID : hev1

  19. Codec ID/Info : High Efficiency Video Coding

  20. Duration : 1 h 30 min

  21. Bit rate : 16.9 Mb/s

  22. Width : 3 840 pixels

  23. Height : 1 608 pixels

  24. Display aspect ratio : 2.40:1

  25. Frame rate mode : Constant

  26. Frame rate : 25.000 FPS

  27. Color space : YUV

  28. Chroma subsampling : 4:2:0

  29. Bit depth : 8 bits

  30. Bits/(Pixel*Frame) : 0.110

  31. Stream size : 10.7 GiB (99%)

  32. Codec configuration box : hvcC

  33. Audio

  34. ID : 2

  35. Format : AAC LC

  36. Format/Info : Advanced Audio Codec Low Complexity

  37. Codec ID : mp4a-40-2

  38. Duration : 1 h 30 min

  39. Bit rate mode : Variable

  40. Bit rate : 124 kb/s

  41. Maximum bit rate : 126 kb/s / 126 kb/s

  42. Channel(s) : 2 channels

  43. Channel layout : L R

  44. Sampling rate : 44.1 kHz

  45. Frame rate : 43.066 FPS (1024 SPF)

  46. Compression mode : Lossy

  47. Stream size : 80.3 MiB (1%)

  48. Default : Yes

  49. Alternate group : 1


复制代码



文件下载


除非特别注明,本文『擦枪走火[国语配音/中文字幕].An.Accidental.Shot.of.Love.2015.2160p.WEB-DL.H265.AAC-CTRLWEB 10.77GB』来源于互联网机器人自动抓取,非本站原创。 浮游电影网不对本文拥有版权,如有侵犯,请联系邮箱:fuyouu#yandex.com[#换成@]投诉。我们会在15个工作日内删除。 但烦请转载时请标明出处:“本文转载于『浮游电影网』,原文地址:https://www.fuyouu.com/21987.html

评论吧骚年!

发表你的见解   

昵称*

E-mail*(建议输入,以便收到博主回复的提示邮件)

验证码*

您可以使用eMule或eMule Mod(Windows)、aMule(Win、Linux、Mac)等软件下载eD2k链接。。
eMule收藏集(.emulecollection)文件是您选中的所有链接的列表文件。eMule可以直接下载它们。
按住SHIFT键选择可以选中多个选择框。
可用文件名和大小选择器来选择文件。
文件名选择器帮您根据文件名称或后缀来选择文件。不分大小写。
符号使用:
和:空格( )、+
不包含:-
或:|
转义:一对英文引号("");
匹配开头:^
匹配结尾:$
例如:
选中所有名称中包含有“eMule”或“0.49c”字眼,但不包含有“exe”字眼的:emule|0.49c -exe
选中所有名称的开头是“eMule”,结尾是“0.49c”的:^emule 0.49c$
选中所有名称中带有“eMule 0.49c”的(必须是“eMule 0.49c”,中间没有别的字符,不能是“eMule fake 0.49c”),需要转义:"emule 0.49c"
大小选择器帮您根据文件大小选择文件。