当前位置: 首页 >> 国产电影 >> 半夜叫你别回头[国语配音/中文字幕].Midnight.Whisper.2015.2160p.WEB-DL.H265.AAC-CTRLWEB 5.47GB >> 正文

半夜叫你别回头[国语配音/中文字幕].Midnight.Whisper.2015.2160p.WEB-DL.H265.AAC-CTRLWEB 5.47GB

2022年05月08日 23:25:39     电影发布:来源于网络     电影分类:国产电影     评论(0)    

◎译 名 半夜叫你别回头 / Midnight Whisper

◎年 代 2015

◎产 地 中国大陆

◎类 别 惊悚 / 恐怖

◎语 言 汉语普通话

◎上映日期 2015-10-30(中国大陆)

◎IMDb链接 https://www.imdb.com/title/tt5504474/

◎豆瓣评分 2.9/10 (1780人评价)

◎豆瓣链接 https://movie.douban.com/subject/26386617/

◎片 长 89分钟

◎导 演 陆诗雨 Shiyu Lu (id:1274565)

◎编 剧 杨宁 Ning Yang (id:1347759)

◎演 员 殷果儿 Guoer Yin (id:1340984)

郭云齐 Yunqi Guo (id:1349371)

倪慕斯 Musi Ni (id:1330297)

宋嘉豪 Jiahao Song (id:1349368)

涵丰 Feng Han (id:1349369)

王修浩 Xiuhao Wang (id:1349370)

常笑笑 Xiaoxiao Chang (id:1349367)

邓紫衣 Ziyi Deng (id:1312698)

贾泽龙 zelongjia (id:1464260)

牛朝阳 Chaoyang Niu (id:1319787)

◎简 介

富家女子璟雯(殷果儿 饰)和孤儿出身的仇乐(郭云齐 饰)结为夫妇,但是璟雯的脸上始终愁云密布,因为她的父母不久前在事故中双双死去。仇乐在整理岳父母的遗产时发现,妻子家在一个偏远山区尚有一套别墅。看管别墅的张大爷曾经救过璟雯的父母,因此璟雯希望能将别墅过户给张大爷作为酬谢。虽然有些不情愿,仇乐还是答应了妻子的要求,并决定在此之间去别墅度个假。谁知夫妻俩一路上经历了各种险情,促狭恶作剧的双胞胎少女、面容丑陋的布娃娃、面容尽毁的老张以及盘桓在别墅内的幢幢鬼影,让本就靠吃药维持健康的璟雯心神不宁。

夜幕降临,危险悄然逼近……

  1. ##### MediaInfo ######

  2. General

  3. Complete name : Midnight.Whisper.2015.2160p.WEB-DL.H265.AAC-CTRLWEB.mp4

  4. Format : MPEG-4

  5. Format profile : Base Media

  6. Codec ID : isom (isom/iso2/mp41)

  7. File size : 5.47 GiB

  8. Duration : 1 h 29 min

  9. Overall bit rate mode : Variable

  10. Overall bit rate : 8 774 kb/s

  11. Recorded date : 2022-05-07T12:25:49.8534096+08:00

  12. Writing application : Lavf59.16.100

  13. Video

  14. ID : 1

  15. Format : HEVC

  16. Format/Info : High Efficiency Video Coding

  17. Format profile : [email protected]@Main

  18. Codec ID : hev1

  19. Codec ID/Info : High Efficiency Video Coding

  20. Duration : 1 h 29 min

  21. Bit rate : 8 576 kb/s

  22. Width : 3 840 pixels

  23. Height : 1 616 pixels

  24. Display aspect ratio : 2.40:1

  25. Frame rate mode : Constant

  26. Frame rate : 25.000 FPS

  27. Color space : YUV

  28. Chroma subsampling : 4:2:0

  29. Bit depth : 8 bits

  30. Bits/(Pixel*Frame) : 0.055

  31. Stream size : 5.34 GiB (98%)

  32. Codec configuration box : hvcC

  33. Audio

  34. ID : 2

  35. Format : AAC LC

  36. Format/Info : Advanced Audio Codec Low Complexity

  37. Codec ID : mp4a-40-2

  38. Duration : 1 h 29 min

  39. Bit rate mode : Variable

  40. Bit rate : 192 kb/s

  41. Maximum bit rate : 197 kb/s / 197 kb/s

  42. Channel(s) : 2 channels

  43. Channel layout : L R

  44. Sampling rate : 44.1 kHz

  45. Frame rate : 43.066 FPS (1024 SPF)

  46. Compression mode : Lossy

  47. Stream size : 121 MiB (2%)

  48. Default : Yes

  49. Alternate group : 1


复制代码



文件下载


除非特别注明,本文『半夜叫你别回头[国语配音/中文字幕].Midnight.Whisper.2015.2160p.WEB-DL.H265.AAC-CTRLWEB 5.47GB』来源于互联网机器人自动抓取,非本站原创。 浮游电影网不对本文拥有版权,如有侵犯,请联系邮箱:fuyouu#yandex.com[#换成@]投诉。我们会在15个工作日内删除。 但烦请转载时请标明出处:“本文转载于『浮游电影网』,原文地址:https://www.fuyouu.com/21984.html

评论吧骚年!

发表你的见解   

昵称*

E-mail*(建议输入,以便收到博主回复的提示邮件)

验证码*

您可以使用eMule或eMule Mod(Windows)、aMule(Win、Linux、Mac)等软件下载eD2k链接。。
eMule收藏集(.emulecollection)文件是您选中的所有链接的列表文件。eMule可以直接下载它们。
按住SHIFT键选择可以选中多个选择框。
可用文件名和大小选择器来选择文件。
文件名选择器帮您根据文件名称或后缀来选择文件。不分大小写。
符号使用:
和:空格( )、+
不包含:-
或:|
转义:一对英文引号("");
匹配开头:^
匹配结尾:$
例如:
选中所有名称中包含有“eMule”或“0.49c”字眼,但不包含有“exe”字眼的:emule|0.49c -exe
选中所有名称的开头是“eMule”,结尾是“0.49c”的:^emule 0.49c$
选中所有名称中带有“eMule 0.49c”的(必须是“eMule 0.49c”,中间没有别的字符,不能是“eMule fake 0.49c”),需要转义:"emule 0.49c"
大小选择器帮您根据文件大小选择文件。