当前位置: 首页 >> 国产电影 >> 匹夫[国语配音/中文字幕].An.Inaccurate.Memoir.2012.2160p.WEB-DL.H265.AAC-CTRLWEB 7.85GB >> 正文

匹夫[国语配音/中文字幕].An.Inaccurate.Memoir.2012.2160p.WEB-DL.H265.AAC-CTRLWEB 7.85GB

2022年05月08日 23:24:48     电影发布:来源于网络     电影分类:国产电影     评论(0)    

◎译 名 匹夫 / 匹夫们的战争 / 匹夫有责 / An Inaccurate Memoir

◎年 代 2012

◎产 地 中国大陆

◎类 别 剧情 / 动作 / 战争 / 西部

◎语 言 汉语普通话

◎上映日期 2012-04-23(中国大陆)

◎IMDb链接 https://www.imdb.com/title/tt2400407/

◎豆瓣评分 5.4/10 (26195人评价)

◎豆瓣链接 https://movie.douban.com/subject/10508901/

◎片 长 105分钟

◎导 演 杨树鹏 Shupeng Yang (id:1315032)

◎编 剧 杨树鹏 Shupeng Yang (id:1315032)

张小北 Xiaobei Zhang (id:1317950)

老晃 Lao Huang (id:1317953)

付丹迪 Dandi Fu (id:1423217)

◎演 员 黄晓明 Xiaoming Huang (id:1041404)

张译 Yi Zhang (id:1274761)

张歆艺 Xinyi Zhang (id:1275455)

王奕权 Leo Wang (id:1319090)

包小柏 Tino Bao (id:1317607)

倪景阳 Jingyang Ni (id:1312836)

马志明 Zhiming Ma (id:1319091)

孙磊 Lei Sun (id:1319092)

张粤 Yue Zhang (id:1319093)

高群书 Qunshu Gao (id:1274943)

梁静 Jing Liang (id:1274641)

江珊 Shan Jiang (id:1276046)

李子雄 Waise Lee (id:1037662)

柏仓裕太 Yuta Kashikura (id:1429403)

耿长军 Asano Nagahide (id:1314015)

张歆怡 Xinyi Zhang (id:1316839)

燕子 Yanzi (id:1408086)

杨树鹏 Shupeng Yang (id:1315032)

曹郁 Yu Cao (id:1304904)

杨树鹏 Shupeng Yang (id:1315032)

方镭 Lei Fang (id:1342909)

杨丹 Dan Yang (id:1419354)

赵楠 Nan Zhao (id:1325307)

杨江 Jiang Yang (id:1351381)

海瑞 Pino.Rea (id:1445093)

◎简 介

抗日战争年代,一群亡命之徒集结在北方平原。他们在首领方有望(黄晓明 饰)带领下,建立了一个地下王国,平日打劫为生。一日他们绑架了一个正去迎亲的新郎官高栋梁(张译 饰),出乎意料的是,高栋梁是个硬汉子,很快凭自己的血性和智慧征服了整个匪帮,成为“二当家”,他和首领之妹“小姑奶奶”方梓珍(张歆艺 饰)产生感情,又说服方有望前去对抗日本侵略者,从绑架来前线视察的“天皇弟弟”开始。经过一番精心策划,这群案底累累的恶棍担起“匹夫之责”,凭借手中武器和血肉之躯,潜入日本人营地,试图搞出一番大作为……

  1. ##### MediaInfo ######

  2. General

  3. Complete name : An.Inaccurate.Memoir.2012.2160p.WEB-DL.H265.AAC-CTRLWEB.mp4

  4. Format : MPEG-4

  5. Format profile : Base Media

  6. Codec ID : isom (isom/iso2/mp41)

  7. File size : 7.85 GiB

  8. Duration : 1 h 42 min

  9. Overall bit rate : 11.0 Mb/s

  10. Recorded date : 2022-05-06T13:40:31.1366980+08:00

  11. Writing application : Lavf59.16.100

  12. Video

  13. ID : 1

  14. Format : HEVC

  15. Format/Info : High Efficiency Video Coding

  16. Format profile : [email protected]@Main

  17. Codec ID : hev1

  18. Codec ID/Info : High Efficiency Video Coding

  19. Duration : 1 h 42 min

  20. Bit rate : 10.8 Mb/s

  21. Width : 3 840 pixels

  22. Height : 1 648 pixels

  23. Display aspect ratio : 2.35:1

  24. Frame rate mode : Constant

  25. Frame rate : 25.000 FPS

  26. Color space : YUV

  27. Chroma subsampling : 4:2:0

  28. Bit depth : 8 bits

  29. Bits/(Pixel*Frame) : 0.068

  30. Stream size : 7.71 GiB (98%)

  31. Codec configuration box : hvcC

  32. Audio

  33. ID : 2

  34. Format : AAC LC

  35. Format/Info : Advanced Audio Codec Low Complexity

  36. Codec ID : mp4a-40-2

  37. Duration : 1 h 42 min

  38. Bit rate mode : Constant

  39. Bit rate : 192 kb/s

  40. Channel(s) : 2 channels

  41. Channel layout : L R

  42. Sampling rate : 44.1 kHz

  43. Frame rate : 43.066 FPS (1024 SPF)

  44. Compression mode : Lossy

  45. Stream size : 139 MiB (2%)

  46. Default : Yes

  47. Alternate group : 1


复制代码



文件下载


除非特别注明,本文『匹夫[国语配音/中文字幕].An.Inaccurate.Memoir.2012.2160p.WEB-DL.H265.AAC-CTRLWEB 7.85GB』来源于互联网机器人自动抓取,非本站原创。 浮游电影网不对本文拥有版权,如有侵犯,请联系邮箱:fuyouu#yandex.com[#换成@]投诉。我们会在15个工作日内删除。 但烦请转载时请标明出处:“本文转载于『浮游电影网』,原文地址:https://www.fuyouu.com/21983.html

评论吧骚年!

发表你的见解   

昵称*

E-mail*(建议输入,以便收到博主回复的提示邮件)

验证码*

您可以使用eMule或eMule Mod(Windows)、aMule(Win、Linux、Mac)等软件下载eD2k链接。。
eMule收藏集(.emulecollection)文件是您选中的所有链接的列表文件。eMule可以直接下载它们。
按住SHIFT键选择可以选中多个选择框。
可用文件名和大小选择器来选择文件。
文件名选择器帮您根据文件名称或后缀来选择文件。不分大小写。
符号使用:
和:空格( )、+
不包含:-
或:|
转义:一对英文引号("");
匹配开头:^
匹配结尾:$
例如:
选中所有名称中包含有“eMule”或“0.49c”字眼,但不包含有“exe”字眼的:emule|0.49c -exe
选中所有名称的开头是“eMule”,结尾是“0.49c”的:^emule 0.49c$
选中所有名称中带有“eMule 0.49c”的(必须是“eMule 0.49c”,中间没有别的字符,不能是“eMule fake 0.49c”),需要转义:"emule 0.49c"
大小选择器帮您根据文件大小选择文件。