当前位置: 首页 >> 国产电影 >> 警魂[国语配音].The.Spirit.of.a.Policeman.1994.WEB-DL.4K.H265.AAC-HomeWEB 2.22GB >> 正文

警魂[国语配音].The.Spirit.of.a.Policeman.1994.WEB-DL.4K.H265.AAC-HomeWEB 2.22GB

2022年05月08日 23:23:07     电影发布:来源于网络     电影分类:国产电影     评论(0)    

◎译 名 警魂

◎年 代 1994

◎产 地 中国大陆

◎语 言 汉语普通话

◎IMDb链接 https://www.imdb.com/title/tt7857158/

◎豆瓣评分 6.6/10 (102人评价)

◎豆瓣链接 https://movie.douban.com/subject/3134885/

◎导 演 王薇 Wei Wang (id:1357397)

◎编 剧 李彦雄 Yanxiong Li (id:1371952)

◎演 员 冯远征 Yuanzheng Feng (id:1043136)

蔡鸿翔 Hongxiang Cai (id:1321149)

刘交心 Jiaoxin Liu (id:1323338)

郭昶 Chang Guo (id:1275304)

郑佳欣 Kai-Yan Cheng (id:1314269)

房晓敏 Xiaomin Fang (id:1439383)

吴本立 Benli Wu (id:1414066)

杨幸媛 Xingyuan Yang (id:1413011)

关愈 Yu Guan (id:1445224)

康德明 Deming Kang (id:1439577)

◎简 介

这是一部取材于真人真事的现代警匪片,影片塑造了一个真实可信、可敬可亲的当代人民警察的光辉形象。

彭宝林——1987年退伍,后任惠阳县工商银行经济警察,1991年主动要求调入惠阳县老街派出所任民警。彭宝林在工作中时时处处严于律己,爱护群众。1993年5月14日,在执行任务中,彭宝林突遇藏匿的通缉犯香港黑社会头目区耀煌。悍匪胁迫人质,持枪拒捕,彭宝林不顾自己身负重伤,与顽匪展开激战,并将悍匪击毙。而彭宝林最终因抢救无效,壮烈殉职,他以自己的青春热血为当代人民警察树立了光辉的榜样。中华人民共和国公安部追授彭宝林全国一级英雄模范称号。

该片获得1994年中国电影华表奖优秀故事片奖;1995年第15届金鸡奖最佳故事片奖。

◎获奖情况 (共1项)

第15届中国电影金鸡奖 (1995)

最佳故事片(提名)

  1. ##### MediaInfo ######

  2. General

  3. Complete name : The.Spirit.of.a.Policeman.1994.WEB-DL.4K.H265.AAC-HomeWEB.mp4

  4. Format : MPEG-4

  5. Format profile : Base Media

  6. Codec ID : isom (isom/iso2/mp41)

  7. File size : 2.22 GiB

  8. Duration : 1 h 36 min

  9. Overall bit rate : 3 272 kb/s

  10. Writing application : Lavf58.30.100

  11. Video

  12. ID : 1

  13. Format : HEVC

  14. Format/Info : High Efficiency Video Coding

  15. Format profile : [email protected]@Main

  16. Codec ID : hev1

  17. Codec ID/Info : High Efficiency Video Coding

  18. Duration : 1 h 36 min

  19. Bit rate : 3 076 kb/s

  20. Width : 3 616 pixels

  21. Height : 2 160 pixels

  22. Display aspect ratio : 5:3

  23. Frame rate mode : Constant

  24. Frame rate : 24.000 FPS

  25. Color space : YUV

  26. Chroma subsampling : 4:2:0

  27. Bit depth : 8 bits

  28. Bits/(Pixel*Frame) : 0.016

  29. Stream size : 2.08 GiB (94%)

  30. Codec configuration box : hvcC

  31. Audio

  32. ID : 2

  33. Format : AAC LC

  34. Format/Info : Advanced Audio Codec Low Complexity

  35. Codec ID : mp4a-40-2

  36. Duration : 1 h 36 min

  37. Bit rate mode : Constant

  38. Bit rate : 192 kb/s

  39. Channel(s) : 2 channels

  40. Channel layout : L R

  41. Sampling rate : 44.1 kHz

  42. Frame rate : 43.066 FPS (1024 SPF)

  43. Compression mode : Lossy

  44. Stream size : 132 MiB (6%)

  45. Default : Yes

  46. Alternate group : 1


复制代码



文件下载


除非特别注明,本文『警魂[国语配音].The.Spirit.of.a.Policeman.1994.WEB-DL.4K.H265.AAC-HomeWEB 2.22GB』来源于互联网机器人自动抓取,非本站原创。 浮游电影网不对本文拥有版权,如有侵犯,请联系邮箱:fuyouu#yandex.com[#换成@]投诉。我们会在15个工作日内删除。 但烦请转载时请标明出处:“本文转载于『浮游电影网』,原文地址:https://www.fuyouu.com/21981.html

评论吧骚年!

发表你的见解   

昵称*

E-mail*(建议输入,以便收到博主回复的提示邮件)

验证码*

您可以使用eMule或eMule Mod(Windows)、aMule(Win、Linux、Mac)等软件下载eD2k链接。。
eMule收藏集(.emulecollection)文件是您选中的所有链接的列表文件。eMule可以直接下载它们。
按住SHIFT键选择可以选中多个选择框。
可用文件名和大小选择器来选择文件。
文件名选择器帮您根据文件名称或后缀来选择文件。不分大小写。
符号使用:
和:空格( )、+
不包含:-
或:|
转义:一对英文引号("");
匹配开头:^
匹配结尾:$
例如:
选中所有名称中包含有“eMule”或“0.49c”字眼,但不包含有“exe”字眼的:emule|0.49c -exe
选中所有名称的开头是“eMule”,结尾是“0.49c”的:^emule 0.49c$
选中所有名称中带有“eMule 0.49c”的(必须是“eMule 0.49c”,中间没有别的字符,不能是“eMule fake 0.49c”),需要转义:"emule 0.49c"
大小选择器帮您根据文件大小选择文件。