当前位置: 首页 >> 国产电影 >> 绝响[国语配音].Swan.Song.1985.WEB-DL.1080p.H264.AAC-HomeWEB 1.28GB >> 正文

绝响[国语配音].Swan.Song.1985.WEB-DL.1080p.H264.AAC-HomeWEB 1.28GB

2022年05月08日 23:21:47     电影发布:来源于网络     电影分类:国产电影     评论(0)    

p2496972940.jpg

◎译 名 绝响 / Swan Song

◎年 代 1985

◎产 地 中国大陆

◎类 别 剧情

◎语 言 汉语普通话

◎上映日期 1985

◎IMDb链接 https://www.imdb.com/title/tt0089389/

◎豆瓣评分 7.6/10 (283人评价)

◎豆瓣链接 https://movie.douban.com/subject/1300207/

◎片 长 103分钟

◎导 演 张泽鸣 Zeming Zhang (id:1301699)

◎编 剧 张泽鸣 Zeming Zhang (id:1301699)

◎演 员 陈锐 Rui Chen (id:1313479)

孔宪珠 Xianzhu Kong (id:1381391)

赵晓时 Xiaoshi Zhao (id:1310556)

郑康振 Kongzhen Zeng (id:1370057)

严秀英 Xiuying Yan (id:1456993)

◎简 介

60年代初,广州西关一条狭窄、旧陋的小巷中居住着区老枢父子。50开外的区老枢是旧社会过来的老艺人,他酷爱广东音乐,编写过不少优美动人的曲谱。他毕生最大的心愿便是发表自己的曲集,可惜这个愿望至死未能实现。

他的儿子冠仔颇具音乐天赋,并一直受到父亲的熏陶。但由于从小失去母爱,生活的负担使他过早地成熟,养成了耿直的性格。在他们父子周围居住着形形色色的邻居,有热爱广东音乐而又心地善良的盲人;有与冠仔青梅竹马、两小无猜的慧女。小巷里人与人之间洋溢着友爱的暖流。

但是,"文革"的狂风暴雨打破了小巷的平静。人们喜爱的音乐被禁止了,曲谱虽然被区老枢藏了下来,但小冠仔却因在批斗区老枢的大会上听到父亲婚变"丑史"而深受刺激,一气之下,离家出走,串联、下乡,一去就是多年……

10年后,变得高大、粗犷、面容冷漠的冠仔回到了物是人非的小巷,见到了消瘦、苍老的父亲。父亲仍念念不...

◎获奖情况 (共6项)

第6届中国电影金鸡奖 (1986)

最佳故事片(提名)

最佳导演(提名)

└──张泽鸣 (id:1301699)

最佳编剧(提名)

└──张泽鸣 (id:1301699)

最佳男主角(提名)

└──孔宪珠 (id:1381391)

最佳摄影

最佳美术

  1. ##### MediaInfo ######

  2. General

  3. Complete name : Swan.Song.1985.WEB-DL.1080p.H264.AAC-HomeWEB.mp4

  4. Format : MPEG-4

  5. Format profile : Base Media

  6. Codec ID : isom (isom/iso2/avc1/mp41)

  7. File size : 1.27 GiB

  8. Duration : 1 h 35 min

  9. Overall bit rate : 1 913 kb/s

  10. Writing application : Lavf59.16.100

  11. Video

  12. ID : 1

  13. Format : AVC

  14. Format/Info : Advanced Video Codec

  15. Format profile : [email protected]

  16. Format settings : CABAC / 4 Ref Frames

  17. Format settings, CABAC : Yes

  18. Format settings, Reference frames : 4 frames

  19. Codec ID : avc1

  20. Codec ID/Info : Advanced Video Coding

  21. Duration : 1 h 35 min

  22. Source duration : 1 h 35 min

  23. Bit rate : 1 808 kb/s

  24. Width : 1 920 pixels

  25. Height : 1 080 pixels

  26. Display aspect ratio : 16:9

  27. Frame rate mode : Constant

  28. Frame rate : 30.000 FPS

  29. Color space : YUV

  30. Chroma subsampling : 4:2:0

  31. Bit depth : 8 bits

  32. Scan type : Progressive

  33. Bits/(Pixel*Frame) : 0.029

  34. Stream size : 1.15 GiB (91%)

  35. Source stream size : 1.20 GiB (95%)

  36. Writing library : x264 core 160

  37. Encoding settings : cabac=1 / ref=2 / deblock=1:0:0 / analyse=0x3:0x113 / me=hex / subme=4 / psy=1 / psy_rd=1.00:0.00 / mixed_ref=0 / me_range=16 / chroma_me=1 / trellis=1 / 8x8dct=1 / cqm=0 / deadzone=21,11 / fast_pskip=1 / chroma_qp_offset=0 / threads=16 / lookahead_threads=4 / sliced_threads=0 / nr=0 / decimate=1 / interlaced=0 / NTMzNTQ= / bluray_compat=0 / constrained_intra=0 / bframes=3 / b_pyramid=2 / b_adapt=1 / b_bias=0 / direct=1 / weightb=1 / open_gop=0 / weightp=1 / keyint=250 / keyint_min=25 / NTMzNTQ=uuDQuD2mJt9fsCf / scenecut=40 / intra_refresh=0 / rc_lookahead=20 / rc=abr / mbtree=1 / bitrate=1800 / ratetol=1.0 / qcomp=0.60 / qpmin=0 / qpmax=69 / qpstep=4 / NTMzNTQ=LmsMAP37EqsCpk / ip_ratio=1.40 / aq=1:1.00

  38. Codec configuration box : avcC

  39. Audio

  40. ID : 2

  41. Format : AAC LC

  42. Format/Info : Advanced Audio Codec Low Complexity

  43. Codec ID : mp4a-40-2

  44. Duration : 1 h 35 min

  45. Bit rate mode : Constant

  46. Bit rate : 96.0 kb/s

  47. Channel(s) : 2 channels

  48. Channel layout : L R

  49. Sampling rate : 44.1 kHz

  50. Frame rate : 43.066 FPS (1024 SPF)

  51. Compression mode : Lossy

  52. Stream size : 65.5 MiB (5%)

  53. Default : Yes

  54. Alternate group : 1


复制代码



文件下载


除非特别注明,本文『绝响[国语配音].Swan.Song.1985.WEB-DL.1080p.H264.AAC-HomeWEB 1.28GB』来源于互联网机器人自动抓取,非本站原创。 浮游电影网不对本文拥有版权,如有侵犯,请联系邮箱:fuyouu#yandex.com[#换成@]投诉。我们会在15个工作日内删除。 但烦请转载时请标明出处:“本文转载于『浮游电影网』,原文地址:https://www.fuyouu.com/21980.html

评论吧骚年!

发表你的见解   

昵称*

E-mail*(建议输入,以便收到博主回复的提示邮件)

验证码*

您可以使用eMule或eMule Mod(Windows)、aMule(Win、Linux、Mac)等软件下载eD2k链接。。
eMule收藏集(.emulecollection)文件是您选中的所有链接的列表文件。eMule可以直接下载它们。
按住SHIFT键选择可以选中多个选择框。
可用文件名和大小选择器来选择文件。
文件名选择器帮您根据文件名称或后缀来选择文件。不分大小写。
符号使用:
和:空格( )、+
不包含:-
或:|
转义:一对英文引号("");
匹配开头:^
匹配结尾:$
例如:
选中所有名称中包含有“eMule”或“0.49c”字眼,但不包含有“exe”字眼的:emule|0.49c -exe
选中所有名称的开头是“eMule”,结尾是“0.49c”的:^emule 0.49c$
选中所有名称中带有“eMule 0.49c”的(必须是“eMule 0.49c”,中间没有别的字符,不能是“eMule fake 0.49c”),需要转义:"emule 0.49c"
大小选择器帮您根据文件大小选择文件。