当前位置: 首页 >> 国产电影 >> 卧鼠藏虫[国语配音/中文字幕].Brothers.2022.WEB-DL.4K.H264.DDP.5.1.&.AAC.2Audios-HomeWEB 6.01GB >> 正文

卧鼠藏虫[国语配音/中文字幕].Brothers.2022.WEB-DL.4K.H264.DDP.5.1.&.AAC.2Audios-HomeWEB 6.01GB

2022年05月08日 23:20:02     电影发布:来源于网络     电影分类:国产电影     评论(0)    

◎译 名 卧鼠藏虫 / 龙鼠兄弟 / Brothers

◎年 代 2022

◎产 地 中国大陆

◎类 别 喜剧

◎语 言 汉语普通话

◎上映日期 2022-03-25(中国大陆)

◎IMDb链接 https://www.imdb.com/title/tt17058672/

◎豆瓣评分 3.2/10 (1870人评价)

◎豆瓣链接 https://movie.douban.com/subject/35390245/

◎片 长 96分钟

◎导 演 文松 Song Wen (id:1351426)

◎编 剧 文松 Song Wen (id:1351426)

石明华 Minghua Shi (id:1331280)

石明辉 Minghui Shi (id:1339764)

◎演 员 文松 Song Wen (id:1351426)

贾冰 Bing Jia (id:1367925)

崔志佳 Zhijia Cui (id:1343941)

张晨光 Morning Chang (id:1275270)

周浩东 Haodong Zhou (id:1316046)

代乐乐 Lele Dai (id:1275749)

艾如 Ru Ai (id:1315614)

夏梓桐 Zitong Xia (id:1275936)

李世鹏 Shipeng Li (id:1323839)

郭子歆 Zixin Guo (id:1414016)

◎简 介

影片讲述了失散多年的双生兄弟在企业抢夺战的反向推动、血脉亲情的感召与国际大案的卷入之下跨国重逢,在身份对调被识破后,兄弟俩统一目标,并肩作战对抗幕后黑手,赶走阴霾重新开始美好生活的喜剧式励志故事。

  1. ##### MediaInfo ######

  2. General

  3. Unique ID : 78919445719361611417613780656663282136 (0x3B5F55163C46F49EED88EE463D2FC1D8)

  4. Complete name : Brothers.2022.WEB-DL.4K.H264.DDP.5.1.&.AAC.2Audios-HomeWEB.mkv

  5. Format : Matroska

  6. Format version : Version 4

  7. File size : 6.00 GiB

  8. Duration : 1 h 30 min

  9. Overall bit rate : 9 479 kb/s

  10. Encoded date : UTC 2022-05-07 12:35:35

  11. Writing application : mkvmerge v63.0.0 ('Everything') 64-bit

  12. Writing library : libebml v1.4.2 + libmatroska v1.6.4

  13. Video

  14. ID : 1

  15. Format : AVC

  16. Format/Info : Advanced Video Codec

  17. Format profile : [email protected]

  18. Format settings : CABAC / 4 Ref Frames

  19. Format settings, CABAC : Yes

  20. Format settings, Reference frames : 4 frames

  21. Codec ID : V_MPEG4/ISO/AVC

  22. Duration : 1 h 30 min

  23. Bit rate : 9 030 kb/s

  24. Width : 3 840 pixels

  25. Height : 2 160 pixels

  26. Display aspect ratio : 16:9

  27. Frame rate mode : Constant

  28. Frame rate : 25.000 FPS

  29. Color space : YUV

  30. Chroma subsampling : 4:2:0

  31. Bit depth : 8 bits

  32. Scan type : Progressive

  33. Bits/(Pixel*Frame) : 0.044

  34. Stream size : 5.72 GiB (95%)

  35. Default : Yes

  36. Forced : No

  37. Audio #1

  38. ID : 2

  39. Format : E-AC-3

  40. Format/Info : Enhanced AC-3

  41. Commercial name : Dolby Digital Plus

  42. Codec ID : A_EAC3

  43. Duration : 1 h 30 min

  44. Bit rate mode : Constant

  45. Bit rate : 256 kb/s

  46. Channel(s) : 6 channels

  47. Channel layout : L R C LFE Ls Rs

  48. Sampling rate : 48.0 kHz

  49. Frame rate : 31.250 FPS (1536 SPF)

  50. Compression mode : Lossy

  51. Stream size : 166 MiB (3%)

  52. Language : Chinese

  53. Service kind : Complete Main

  54. Default : Yes

  55. Forced : No

  56. Audio #2

  57. ID : 3

  58. Format : AAC LC

  59. Format/Info : Advanced Audio Codec Low Complexity

  60. Codec ID : A_AAC-2

  61. Duration : 1 h 30 min

  62. Bit rate : 192 kb/s

  63. Channel(s) : 2 channels

  64. Channel layout : L R

  65. Sampling rate : 44.1 kHz

  66. Frame rate : 43.066 FPS (1024 SPF)

  67. Compression mode : Lossy

  68. Stream size : 123 MiB (2%)

  69. Language : Chinese

  70. Default : No

  71. Forced : No


复制代码



文件下载


除非特别注明,本文『卧鼠藏虫[国语配音/中文字幕].Brothers.2022.WEB-DL.4K.H264.DDP.5.1.&.AAC.2Audios-HomeWEB 6.01GB』来源于互联网机器人自动抓取,非本站原创。 浮游电影网不对本文拥有版权,如有侵犯,请联系邮箱:fuyouu#yandex.com[#换成@]投诉。我们会在15个工作日内删除。 但烦请转载时请标明出处:“本文转载于『浮游电影网』,原文地址:https://www.fuyouu.com/21979.html

评论吧骚年!

发表你的见解   

昵称*

E-mail*(建议输入,以便收到博主回复的提示邮件)

验证码*

您可以使用eMule或eMule Mod(Windows)、aMule(Win、Linux、Mac)等软件下载eD2k链接。。
eMule收藏集(.emulecollection)文件是您选中的所有链接的列表文件。eMule可以直接下载它们。
按住SHIFT键选择可以选中多个选择框。
可用文件名和大小选择器来选择文件。
文件名选择器帮您根据文件名称或后缀来选择文件。不分大小写。
符号使用:
和:空格( )、+
不包含:-
或:|
转义:一对英文引号("");
匹配开头:^
匹配结尾:$
例如:
选中所有名称中包含有“eMule”或“0.49c”字眼,但不包含有“exe”字眼的:emule|0.49c -exe
选中所有名称的开头是“eMule”,结尾是“0.49c”的:^emule 0.49c$
选中所有名称中带有“eMule 0.49c”的(必须是“eMule 0.49c”,中间没有别的字符,不能是“eMule fake 0.49c”),需要转义:"emule 0.49c"
大小选择器帮您根据文件大小选择文件。