当前位置: 首页 >> 港台电影 >> 夕阳天使[国语音轨/中文字幕].So.Close.2002.CHINESE.1080p.AMZN.WEBRip.DDP5.1.x264-WELP 8.34GB >> 正文

夕阳天使[国语音轨/中文字幕].So.Close.2002.CHINESE.1080p.AMZN.WEBRip.DDP5.1.x264-WELP 8.34GB

2022年05月08日 23:18:44     电影发布:来源于网络     电影分类:港台电影     评论(0)    

◎译 名 夕阳天使 / So Close

◎片 名 夕陽天使

◎年 代 2002

◎产 地 中国香港

◎类 别 动作 / 犯罪

◎语 言 粤语 / 汉语普通话

◎上映日期 2002-08-22

◎IMDb链接 https://www.imdb.com/title/tt0300620/

◎豆瓣评分 6.7/10 (58336人评价)

◎豆瓣链接 https://movie.douban.com/subject/1300608/

◎片 长 UK: 110 分钟

◎导 演 元奎 Corey Yuen (id:1289150)

◎编 剧 刘镇伟 Jeffrey Lau (id:1274431)

◎演 员 舒淇 Qi Shu (id:1138320)

莫文蔚 Karen Mok (id:1018248)

宋承宪 Seung-heon Song (id:1028283)

仓田保昭 Yasuaki Kurata (id:1032379)

温兆伦 Siu-Lun Wan (id:1042785)

石修 Sau Sek (id:1166760)

林国斌 Ben Lam (id:1289293)

鲍起静 Hee Ching Paw (id:1274229)

刘以达 Tats Lau (id:1034328)

何超仪 Josie Ho (id:1014212)

方平 Henry Fong (id:1312822)

古巨基 Leo Ku (id:1023990)

林尚武 Seung-Mo Lam (id:1336621)

裘德·普瓦耶 Jude Poyer (id:1384164)

黄素璧 So Pik Wong (id:1453596)

袁富华 Fu-wah Yuen (id:1359508)

谷垣健治 Kenji Tanigaki (id:1335515)

金兴贤 Hing-Yin Kam (id:1327387)

Russell Wait Russell Wait (id:1189114)

里卡多·马姆多 Ricardo Mamood (id:1018569)

邝文珣 May Kwong (id:1002653)

姜国民 Kwok-Man Keung (id:1288470)

张嘉辉 Ka-fai Cheung (id:1280620)

黄宏显 Eddy Wong (id:1302455)

戴美玲 Jessie Dai (id:1305279)

奚仲文 Chung-Man Hai (id:1275027)

黎继强 Kai Keung Lai (id:1289263)

曹展能 David Tso (id:1305227)

罗杰·博尔顿 Roger Bolton (id:1064386)

卫志豪 Michael Wai (id:1364170)

◎简 介

亚洲电脑业巨头周氏兄弟发现其公司内部的电脑系统于一夜之间感染病毒全部瘫痪,四处求救之时,一个自称“天使”的神秘高手出手相助,麻烦成功解除,令周氏兄弟十分钦佩。出于好奇,他们提出与“天使”见面道谢,不想应约而至的“天使”是一对拥有天使面容的姊妹花——陈爱琳(舒淇)和陈爱群(赵薇),而之前的电脑中毒事件,也是由这对姊妹花一手策划:她们是想借此突破周氏公司森严的保安系统,实施更大的阴谋。

女警江日红(莫文蔚)闻得风声,在爱琳和爱群实施阴谋时展开调查,不想仍让她们得手。随后,在周氏兄弟的策划下,爱琳死于乱枪之下,可是现场留下的指纹却是江日红的。无奈之下,江日红与爱群联起手来,两人逐渐由敌手变作朋友。

◎获奖情况 (共1项)

第22届香港电影金像奖 (2003)

最佳动作设计(提名)

  1. Video

  2. ID : 1

  3. Format : AVC

  4. Format/Info : Advanced Video Codec

  5. Format profile : [email protected]

  6. Format settings : CABAC / 4 Ref Frames

  7. Format settings, CABAC : Yes

  8. Format settings, Reference frames : 4 frames

  9. Codec ID : V_MPEG4/ISO/AVC

  10. Duration : 1 h 51 min

  11. Bit rate : 10.1 Mb/s

  12. Width : 1 916 pixels

  13. Height : 1 076 pixels

  14. Display aspect ratio : 16:9

  15. Frame rate mode : Constant

  16. Frame rate : 23.976 (24000/1001/53354) FPS

  17. Color space : YUV

  18. Chroma subsampling : 4:2:0

  19. Bit depth : 8 bits

  20. Scan type : Progressive

  21. Bits/(Pixel*Frame) : 0.205

  22. Stream size : 7.84 GiB (94%)

  23. Default : Yes

  24. Forced : No

  25. Color range : Limited

  26. Color primaries : BT.709

  27. Transfer characteristics : BT.709

  28. Matrix coefficients : BT.709


  29. Audio

  30. ID : 2

  31. Format : E-AC-3

  32. Format/Info : Enhanced AC-3

  33. Commercial name : Dolby Digital Plus

  34. Codec ID : A_EAC3

  35. Duration : 1 h 50 min

  36. Bit rate mode : Constant

  37. Bit rate : 640 kb/s

  38. Channel(s) : 6 channels

  39. Channel layout : L R C LFE Ls Rs

  40. Sampling rate : 48.0 kHz

  41. Frame rate : 31.250 FPS (1536 SPF)

  42. Compression mode : Lossy

  43. Stream size : 507 MiB (6%)

  44. Title : Mandarin

  45. Language : Chinese

  46. Service kind : Complete Main

  47. Default : Yes

  48. Forced : No


  49. Text #1

  50. ID : 3

  51. Format : UTF-8

  52. Codec ID : S_TEXT/UTF8

  53. Codec ID/Info : UTF-8 Plain Text

  54. Duration : 1 h 46 min

  55. Bit rate : 36 b/s

  56. Count of elements : 710

  57. Stream size : 28.1 KiB (0%)

  58. Language : English

  59. Default : No

  60. Forced : No


  61. Text #2

  62. ID : 4

  63. Format : UTF-8

  64. Codec ID : S_TEXT/UTF8

  65. Codec ID/Info : UTF-8 Plain Text

  66. Duration : 1 h 49 min

  67. Bit rate : 43 b/s

  68. Count of elements : 1196

  69. Stream size : 34.6 KiB (0%)

  70. Title : SDH

  71. Language : English

  72. Default : No

  73. Forced : No


  74. Text #3

  75. ID : 5

  76. Format : UTF-8

  77. Codec ID : S_TEXT/UTF8

  78. Codec ID/Info : UTF-8 Plain Text

  79. Duration : 1 h 46 min

  80. Bit rate : 33 b/s

  81. Count of elements : 866

  82. Stream size : 26.4 KiB (0%)

  83. Title : Latin American

  84. Language : Spanish

  85. Default : No

  86. Forced : No


  87. Text #4

  88. ID : 6

  89. Format : UTF-8

  90. Codec ID : S_TEXT/UTF8

  91. Codec ID/Info : UTF-8 Plain Text

  92. Duration : 1 h 48 min

  93. Bit rate : 32 b/s

  94. Count of elements : 727

  95. Stream size : 25.7 KiB (0%)

  96. Language : French

  97. Default : No

  98. Forced : No


  99. Text #5

  100. ID : 7

  101. Format : UTF-8

  102. Codec ID : S_TEXT/UTF8

  103. Codec ID/Info : UTF-8 Plain Text

  104. Duration : 1 h 46 min

  105. Bit rate : 25 b/s

  106. Count of elements : 717

  107. Stream size : 19.9 KiB (0%)

  108. Language : Korean

  109. Default : No

  110. Forced : No


  111. Text #6

  112. ID : 8

  113. Format : UTF-8

  114. Codec ID : S_TEXT/UTF8

  115. Codec ID/Info : UTF-8 Plain Text

  116. Duration : 1 h 46 min

  117. Bit rate : 34 b/s

  118. Count of elements : 874

  119. Stream size : 27.1 KiB (0%)

  120. Title : Brazilian

  121. Language : Portuguese

  122. Default : No

  123. Forced : No


  124. Text #7

  125. ID : 9

  126. Format : UTF-8

  127. Codec ID : S_TEXT/UTF8

  128. Codec ID/Info : UTF-8 Plain Text

  129. Duration : 1 h 46 min

  130. Bit rate : 76 b/s

  131. Count of elements : 729

  132. Stream size : 59.8 KiB (0%)

  133. Language : Thai

  134. Default : No

  135. Forced : No


  136. Text #8

  137. ID : 10

  138. Format : UTF-8

  139. Codec ID : S_TEXT/UTF8

  140. Codec ID/Info : UTF-8 Plain Text

  141. Duration : 1 h 46 min

  142. Bit rate : 41 b/s

  143. Count of elements : 725

  144. Stream size : 32.7 KiB (0%)

  145. Language : Vietnamese

  146. Default : No

  147. Forced : No


  148. Text #9

  149. ID : 11

  150. Format : UTF-8

  151. Codec ID : S_TEXT/UTF8

  152. Codec ID/Info : UTF-8 Plain Text

  153. Duration : 1 h 46 min

  154. Bit rate : 33 b/s

  155. Count of elements : 754

  156. Stream size : 25.7 KiB (0%)

  157. Title : Simplified

  158. Language : Chinese

  159. Default : No

  160. Forced : No


  161. Text #10

  162. ID : 12

  163. Format : UTF-8

  164. Codec ID : S_TEXT/UTF8

  165. Codec ID/Info : UTF-8 Plain Text

  166. Duration : 1 h 46 min

  167. Bit rate : 32 b/s

  168. Count of elements : 745

  169. Stream size : 25.5 KiB (0%)

  170. Title : Traditional

  171. Language : Chinese

  172. Default : No

  173. Forced : No


  174. Menu

  175. 00:00:00.000 : en:Chapter 01

  176. 00:03:04.000 : en:Chapter 02

  177. 00:05:22.000 : en:Chapter 03

  178. 00:08:57.000 : en:Chapter 04

  179. 00:15:23.000 : en:Chapter 05

  180. 00:17:28.000 : en:Chapter 06

  181. 00:19:18.000 : en:Chapter 07

  182. 00:20:54.000 : en:Chapter 08

  183. 00:22:46.000 : en:Chapter 09

  184. 00:27:10.000 : en:Chapter 10

  185. 00:30:48.000 : en:Chapter 11

  186. 00:33:17.000 : en:Chapter 12

  187. 00:37:04.000 : en:Chapter 13

  188. 00:39:06.000 : en:Chapter 14

  189. 00:47:42.000 : en:Chapter 15

  190. 00:51:06.000 : en:Chapter 16

  191. 00:55:52.000 : en:Chapter 17

  192. 01:01:40.000 : en:Chapter 18

  193. 01:11:13.000 : en:Chapter 19

  194. 01:14:33.000 : en:Chapter 20

  195. 01:22:24.000 : en:Chapter 21

  196. 01:30:40.000 : en:Chapter 22

  197. 01:32:22.000 : en:Chapter 23

  198. 01:33:30.000 : en:Chapter 24

  199. 01:35:49.000 : en:Chapter 25

  200. 01:38:48.000 : en:Chapter 26

  201. 01:39:23.000 : en:Chapter 27

  202. 01:40:01.000 : en:Chapter 28

复制代码



文件下载


除非特别注明,本文『夕阳天使[国语音轨/中文字幕].So.Close.2002.CHINESE.1080p.AMZN.WEBRip.DDP5.1.x264-WELP 8.34GB』来源于互联网机器人自动抓取,非本站原创。 浮游电影网不对本文拥有版权,如有侵犯,请联系邮箱:fuyouu#yandex.com[#换成@]投诉。我们会在15个工作日内删除。 但烦请转载时请标明出处:“本文转载于『浮游电影网』,原文地址:https://www.fuyouu.com/21978.html

评论吧骚年!

发表你的见解   

昵称*

E-mail*(建议输入,以便收到博主回复的提示邮件)

验证码*

您可以使用eMule或eMule Mod(Windows)、aMule(Win、Linux、Mac)等软件下载eD2k链接。。
eMule收藏集(.emulecollection)文件是您选中的所有链接的列表文件。eMule可以直接下载它们。
按住SHIFT键选择可以选中多个选择框。
可用文件名和大小选择器来选择文件。
文件名选择器帮您根据文件名称或后缀来选择文件。不分大小写。
符号使用:
和:空格( )、+
不包含:-
或:|
转义:一对英文引号("");
匹配开头:^
匹配结尾:$
例如:
选中所有名称中包含有“eMule”或“0.49c”字眼,但不包含有“exe”字眼的:emule|0.49c -exe
选中所有名称的开头是“eMule”,结尾是“0.49c”的:^emule 0.49c$
选中所有名称中带有“eMule 0.49c”的(必须是“eMule 0.49c”,中间没有别的字符,不能是“eMule fake 0.49c”),需要转义:"emule 0.49c"
大小选择器帮您根据文件大小选择文件。