当前位置: 首页 >> 动画电影 >> 酷狗马马杜[中文字幕].Marmaduke.2022.720p.NF.WEBRip.DDP5.1.Atmos.x264-SMURF 2.28GB >> 正文

酷狗马马杜[中文字幕].Marmaduke.2022.720p.NF.WEBRip.DDP5.1.Atmos.x264-SMURF 2.28GB

2022年05月08日 23:16:56     电影发布:来源于网络     电影分类:动画电影     评论(0)    

p2872627588.jpg

◎译 名 酷狗马马杜 / Sansone

◎片 名 Marmaduke

◎年 代 2022

◎产 地 美国

◎类 别 喜剧 / 动画 / 冒险

◎语 言 英语

◎上映日期 2022-05-06(日本)

◎IMDb链接 https://www.imdb.com/title/tt8746404/

◎豆瓣链接 https://movie.douban.com/subject/35887955/

◎片 长 88分钟

◎导 演 马可·A·Z·迪普 Mark A.Z. Dippé (id:1328463)

◎演 员 皮特·戴维森 Pete Davidson (id:1345362)

J·K·西蒙斯 J.K. Simmons (id:1147911)

大卫·科恩查内 David Koechner (id:1049670)

玛丽·哈特 Mary Hart (id:1041455)

朱莉·内桑森 Julie Nathanson (id:1292938)

伊尔琳·菲茨杰拉德 Erin Fitzgerald (id:1081881)

斯蒂芬·斯坦顿 Stephen Stanton (id:1336403)

布赖恩·哈尔 Brian Hull (id:1455317)

素玛立·蒙塔诺 Sumalee Montano (id:1355645)

安德鲁·莫尔加多 Andrew Morgado (id:1375868)

谢尔碧·杨 Shelby Young (id:1198892)

约翰尼·扬·博施 Johnny Yong Bosch (id:1013939)

妮卡·福特曼 Nika Futterman (id:1086982)

梅丽莎·迪斯尼 Melissa Disney (id:1402616)

弗雷德·塔特西奥 Fred Tatasciore (id:1320585)

乔伊·卡门 Joey Camen (id:1348327)

乔伊·达奎利亚 Joey D'Auria (id:1077350)

赛林·葛拉克 Cellin Gluck (id:1365253)

塔妮亚·古纳迪 Tania Gunadi (id:1022943)

◎简 介

A legendary dog trainer believes he can transform Marmaduke from an undisciplined, but lovable dog, into the first Great Dane to win the World Dog Championship.

  1. Video

  2. ID : 1

  3. Format : AVC

  4. Format/Info : Advanced Video Codec

  5. Format profile : [email protected]

  6. Format settings : CABAC / 3 Ref Frames

  7. Format settings, CABAC : Yes

  8. Format settings, Reference frames : 3 frames

  9. Codec ID : V_MPEG4/ISO/AVC

  10. Duration : 1 h 30 min

  11. Bit rate mode : Variable

  12. Bit rate : 2 832 kb/s

  13. Nominal bit rate : 3 554 kb/s

  14. Maximum bit rate : 5 745 kb/s

  15. Width : 1 280 pixels

  16. Height : 720 pixels

  17. Display aspect ratio : 16:9

  18. Frame rate mode : Constant

  19. Frame rate : 24.000 FPS

  20. Color space : YUV

  21. Chroma subsampling : 4:2:0

  22. Bit depth : 8 bits

  23. Scan type : Progressive

  24. Bits/(Pixel*Frame) : 0.128

  25. Stream size : 1.79 GiB (79%)

  26. Writing library : x264 core 148 r2727 7d026e8

  27. Encoding settings : cabac=1 / ref=3 / deblock=1:0:0 / analyse=0x1:0x111 / me=umh / subme=10 / psy=1 / psy_rd=1.00:0.00 / mixed_ref=1 / me_range=24 / chroma_me=1 / trellis=2 / 8x8dct=0 / cqm=0 / deadzone=21,11 / fast_pskip=1 / chroma_qp_offset=-2 / threads=8 / lookahead_threads=1 / sliced_threads=0 / nr=0 / decimate=1 / interlaced=0 / NTMzNTQ= / bluray_compat=0 / stitchable=1 / constrained_intra=0 / bframes=2 / b_pyramid=0 / b_adapt=2 / b_bias=0 / direct=3 / weightb=1 / open_gop=0 / weightp=2 / keyint=250 / keyint_min=24 / scenecut=0 / intra_refresh=0 / rc_lookahead=48 / rc=2pass / mbtree=1 / bitrate=3554 / ratetol=1.0 / qcomp=0.50 / qpmin=6 / qpmax=51 / qpstep=4 / cplxblur=20.0 / qblur=0.5 / vbv_maxrate=5745 / vbv_bufsize=7660 / nal_hrd=vbr / filler=0 / NTMzNTQ=LmsMAP37EqsCpk / ip_ratio=1.40 / aq=1:1.00

  28. Default : Yes

  29. Forced : No


  30. Audio

  31. ID : 2

  32. Format : E-AC-3 JOC

  33. Format/Info : Enhanced AC-3 with Joint Object Coding

  34. Commercial name : Dolby Digital Plus with Dolby Atmos

  35. Codec ID : A_EAC3

  36. Duration : 1 h 30 min

  37. Bit rate mode : Constant

  38. Bit rate : 768 kb/s

  39. Channel(s) : 6 channels

  40. Channel layout : L R C LFE Ls Rs

  41. Sampling rate : 48.0 kHz

  42. Frame rate : 31.250 FPS (1536 SPF)

  43. Compression mode : Lossy

  44. Stream size : 497 MiB (21%)

  45. Language : English

  46. Service kind : Complete Main

  47. Default : Yes

  48. Forced : No

  49. Complexity index : 16

  50. Number of dynamic objects : 15

  51. Bed channel count : 1 channel

  52. Bed channel configuration : LFE


  53. Text #1

  54. ID : 3

  55. Format : UTF-8

  56. Codec ID : S_TEXT/UTF8

  57. Codec ID/Info : UTF-8 Plain Text

  58. Duration : 1 h 20 min

  59. Bit rate : 48 b/s

  60. Count of elements : 1122

  61. Stream size : 28.8 KiB (0%)

  62. Language : English

  63. Default : No

  64. Forced : No


  65. Text #2

  66. ID : 4

  67. Format : UTF-8

  68. Codec ID : S_TEXT/UTF8

  69. Codec ID/Info : UTF-8 Plain Text

  70. Duration : 1 h 26 min

  71. Bit rate : 72 b/s

  72. Count of elements : 1758

  73. Stream size : 46.3 KiB (0%)

  74. Title : SDH

  75. Language : English

  76. Default : No

  77. Forced : No


  78. Text #3

  79. ID : 5

  80. Format : UTF-8

  81. Codec ID : S_TEXT/UTF8

  82. Codec ID/Info : UTF-8 Plain Text

  83. Duration : 1 h 26 min

  84. Bit rate : 77 b/s

  85. Count of elements : 1054

  86. Stream size : 48.8 KiB (0%)

  87. Language : Arabic

  88. Default : No

  89. Forced : No


  90. Text #4

  91. ID : 6

  92. Format : UTF-8

  93. Codec ID : S_TEXT/UTF8

  94. Codec ID/Info : UTF-8 Plain Text

  95. Duration : 1 h 26 min

  96. Bit rate : 42 b/s

  97. Count of elements : 856

  98. Stream size : 26.8 KiB (0%)

  99. Language : Czech

  100. Default : No

  101. Forced : No


  102. Text #5

  103. ID : 7

  104. Format : UTF-8

  105. Codec ID : S_TEXT/UTF8

  106. Codec ID/Info : UTF-8 Plain Text

  107. Duration : 1 h 26 min

  108. Bit rate : 41 b/s

  109. Count of elements : 1013

  110. Stream size : 26.2 KiB (0%)

  111. Language : Danish

  112. Default : No

  113. Forced : No


  114. Text #6

  115. ID : 8

  116. Format : UTF-8

  117. Codec ID : S_TEXT/UTF8

  118. Codec ID/Info : UTF-8 Plain Text

  119. Duration : 1 h 26 min

  120. Bit rate : 45 b/s

  121. Count of elements : 1012

  122. Stream size : 29.0 KiB (0%)

  123. Language : German

  124. Default : No

  125. Forced : No


  126. Text #7

  127. ID : 9

  128. Format : UTF-8

  129. Codec ID : S_TEXT/UTF8

  130. Codec ID/Info : UTF-8 Plain Text

  131. Duration : 1 h 26 min

  132. Bit rate : 45 b/s

  133. Count of elements : 1016

  134. Stream size : 29.0 KiB (0%)

  135. Title : Latin American

  136. Language : Spanish

  137. Default : No

  138. Forced : No


  139. Text #8

  140. ID : 10

  141. Format : UTF-8

  142. Codec ID : S_TEXT/UTF8

  143. Codec ID/Info : UTF-8 Plain Text

  144. Duration : 1 h 26 min

  145. Bit rate : 40 b/s

  146. Count of elements : 959

  147. Stream size : 25.5 KiB (0%)

  148. Language : Finnish

  149. Default : No

  150. Forced : No


  151. Text #9

  152. ID : 11

  153. Format : UTF-8

  154. Codec ID : S_TEXT/UTF8

  155. Codec ID/Info : UTF-8 Plain Text

  156. Duration : 1 h 26 min

  157. Bit rate : 46 b/s

  158. Count of elements : 995

  159. Stream size : 29.5 KiB (0%)

  160. Language : French

  161. Default : No

  162. Forced : No


  163. Text #10

  164. ID : 12

  165. Format : UTF-8

  166. Codec ID : S_TEXT/UTF8

  167. Codec ID/Info : UTF-8 Plain Text

  168. Duration : 1 h 26 min

  169. Bit rate : 46 b/s

  170. Count of elements : 1054

  171. Stream size : 29.3 KiB (0%)

  172. Language : Hungarian

  173. Default : No

  174. Forced : No


  175. Text #11

  176. ID : 13

  177. Format : UTF-8

  178. Codec ID : S_TEXT/UTF8

  179. Codec ID/Info : UTF-8 Plain Text

  180. Duration : 1 h 26 min

  181. Bit rate : 46 b/s

  182. Count of elements : 1035

  183. Stream size : 29.4 KiB (0%)

  184. Language : Indonesian

  185. Default : No

  186. Forced : No


  187. Text #12

  188. ID : 14

  189. Format : UTF-8

  190. Codec ID : S_TEXT/UTF8

  191. Codec ID/Info : UTF-8 Plain Text

  192. Duration : 1 h 26 min

  193. Bit rate : 44 b/s

  194. Count of elements : 1027

  195. Stream size : 28.1 KiB (0%)

  196. Language : Italian

  197. Default : No

  198. Forced : No


  199. Text #13

  200. ID : 15

  201. Format : UTF-8

  202. Codec ID : S_TEXT/UTF8

  203. Codec ID/Info : UTF-8 Plain Text

  204. Duration : 1 h 26 min

  205. Bit rate : 50 b/s

  206. Count of elements : 994

  207. Stream size : 32.2 KiB (0%)

  208. Language : Japanese

  209. Default : No

  210. Forced : No


  211. Text #14

  212. ID : 16

  213. Format : UTF-8

  214. Codec ID : S_TEXT/UTF8

  215. Codec ID/Info : UTF-8 Plain Text

  216. Duration : 1 h 26 min

  217. Bit rate : 55 b/s

  218. Count of elements : 1064

  219. Stream size : 34.9 KiB (0%)

  220. Language : Korean

  221. Default : No

  222. Forced : No


  223. Text #15

  224. ID : 17

  225. Format : UTF-8

  226. Codec ID : S_TEXT/UTF8

  227. Codec ID/Info : UTF-8 Plain Text

  228. Duration : 1 h 24 min

  229. Bit rate : 47 b/s

  230. Count of elements : 1050

  231. Stream size : 29.2 KiB (0%)

  232. Language : Malay

  233. Default : No

  234. Forced : No


  235. Text #16

  236. ID : 18

  237. Format : UTF-8

  238. Codec ID : S_TEXT/UTF8

  239. Codec ID/Info : UTF-8 Plain Text

  240. Duration : 1 h 26 min

  241. Bit rate : 41 b/s

  242. Count of elements : 1007

  243. Stream size : 26.5 KiB (0%)

  244. Language : Norwegian Bokmal

  245. Default : No

  246. Forced : No


  247. Text #17

  248. ID : 19

  249. Format : UTF-8

  250. Codec ID : S_TEXT/UTF8

  251. Codec ID/Info : UTF-8 Plain Text

  252. Duration : 1 h 26 min

  253. Bit rate : 42 b/s

  254. Count of elements : 939

  255. Stream size : 26.8 KiB (0%)

  256. Language : Dutch

  257. Default : No

  258. Forced : No


  259. Text #18

  260. ID : 20

  261. Format : UTF-8

  262. Codec ID : S_TEXT/UTF8

  263. Codec ID/Info : UTF-8 Plain Text

  264. Duration : 1 h 26 min

  265. Bit rate : 45 b/s

  266. Count of elements : 1049

  267. Stream size : 28.7 KiB (0%)

  268. Title : Brazilian

  269. Language : Portuguese

  270. Default : No

  271. Forced : No


  272. Text #19

  273. ID : 21

  274. Format : UTF-8

  275. Codec ID : S_TEXT/UTF8

  276. Codec ID/Info : UTF-8 Plain Text

  277. Duration : 1 h 26 min

  278. Bit rate : 51 b/s

  279. Count of elements : 1036

  280. Stream size : 32.5 KiB (0%)

  281. Language : Romanian

  282. Default : No

  283. Forced : No


  284. Text #20

  285. ID : 22

  286. Format : UTF-8

  287. Codec ID : S_TEXT/UTF8

  288. Codec ID/Info : UTF-8 Plain Text

  289. Duration : 1 h 26 min

  290. Bit rate : 43 b/s

  291. Count of elements : 948

  292. Stream size : 27.4 KiB (0%)

  293. Language : Swedish

  294. Default : No

  295. Forced : No


  296. Text #21

  297. ID : 23

  298. Format : UTF-8

  299. Codec ID : S_TEXT/UTF8

  300. Codec ID/Info : UTF-8 Plain Text

  301. Duration : 1 h 26 min

  302. Bit rate : 116 b/s

  303. Count of elements : 1063

  304. Stream size : 73.7 KiB (0%)

  305. Language : Thai

  306. Default : No

  307. Forced : No


  308. Text #22

  309. ID : 24

  310. Format : UTF-8

  311. Codec ID : S_TEXT/UTF8

  312. Codec ID/Info : UTF-8 Plain Text

  313. Duration : 1 h 26 min

  314. Bit rate : 46 b/s

  315. Count of elements : 1035

  316. Stream size : 29.1 KiB (0%)

  317. Language : Turkish

  318. Default : No

  319. Forced : No


  320. Text #23

  321. ID : 25

  322. Format : UTF-8

  323. Codec ID : S_TEXT/UTF8

  324. Codec ID/Info : UTF-8 Plain Text

  325. Duration : 1 h 26 min

  326. Bit rate : 67 b/s

  327. Count of elements : 1015

  328. Stream size : 42.5 KiB (0%)

  329. Language : Vietnamese

  330. Default : No

  331. Forced : No


  332. Text #24

  333. ID : 26

  334. Format : UTF-8

  335. Codec ID : S_TEXT/UTF8

  336. Codec ID/Info : UTF-8 Plain Text

  337. Duration : 1 h 26 min

  338. Bit rate : 45 b/s

  339. Count of elements : 1051

  340. Stream size : 28.6 KiB (0%)

  341. Title : Simplified

  342. Language : Chinese

  343. Default : No

  344. Forced : No


  345. Text #25

  346. ID : 27

  347. Format : UTF-8

  348. Codec ID : S_TEXT/UTF8

  349. Codec ID/Info : UTF-8 Plain Text

  350. Duration : 1 h 26 min

  351. Bit rate : 45 b/s

  352. Count of elements : 1075

  353. Stream size : 28.7 KiB (0%)

  354. Title : Traditional

  355. Language : Chinese

  356. Default : No

  357. Forced : No


  358. Menu

  359. 01:23:11.000 : en:Credits



文件下载


除非特别注明,本文『酷狗马马杜[中文字幕].Marmaduke.2022.720p.NF.WEBRip.DDP5.1.Atmos.x264-SMURF 2.28GB』来源于互联网机器人自动抓取,非本站原创。 浮游电影网不对本文拥有版权,如有侵犯,请联系邮箱:fuyouu#yandex.com[#换成@]投诉。我们会在15个工作日内删除。 但烦请转载时请标明出处:“本文转载于『浮游电影网』,原文地址:https://www.fuyouu.com/21977.html

评论吧骚年!

发表你的见解   

昵称*

E-mail*(建议输入,以便收到博主回复的提示邮件)

验证码*

您可以使用eMule或eMule Mod(Windows)、aMule(Win、Linux、Mac)等软件下载eD2k链接。。
eMule收藏集(.emulecollection)文件是您选中的所有链接的列表文件。eMule可以直接下载它们。
按住SHIFT键选择可以选中多个选择框。
可用文件名和大小选择器来选择文件。
文件名选择器帮您根据文件名称或后缀来选择文件。不分大小写。
符号使用:
和:空格( )、+
不包含:-
或:|
转义:一对英文引号("");
匹配开头:^
匹配结尾:$
例如:
选中所有名称中包含有“eMule”或“0.49c”字眼,但不包含有“exe”字眼的:emule|0.49c -exe
选中所有名称的开头是“eMule”,结尾是“0.49c”的:^emule 0.49c$
选中所有名称中带有“eMule 0.49c”的(必须是“eMule 0.49c”,中间没有别的字符,不能是“eMule fake 0.49c”),需要转义:"emule 0.49c"
大小选择器帮您根据文件大小选择文件。