当前位置: 首页 >> 欧美电影 >> 亡命救护车[HDR版本][简繁英字幕].Ambulance.2022.2160p.WEB-DL.HDR.HEVC.Atmos.DDP5.1-OPT 24.10GB >> 正文

亡命救护车[HDR版本][简繁英字幕].Ambulance.2022.2160p.WEB-DL.HDR.HEVC.Atmos.DDP5.1-OPT 24.10GB

2022年05月08日 23:10:31     电影发布:来源于网络     电影分类:欧美电影     评论(0)    

◎译 名 亡命救护车 / 救护车 / 劫命救护(台) / 十字冲锋车(港)

◎片 名 Ambulance

◎年 代 2022

◎产 地 美国

◎类 别 动作 / 犯罪

◎语 言 英语

◎上映日期 2022-04-22(中国大陆) / 2022-04-08(美国)

◎IMDb链接 https://www.imdb.com/title/tt4998632/

◎豆瓣评分 5.6/10 (16678人评价)

◎豆瓣链接 https://movie.douban.com/subject/35250237/

◎片 长 136分钟

◎导 演 迈克尔·贝 Michael Bay (id:1027776)

◎编 剧 克里斯·费达克 Chris Fedak (id:1319798)

劳里茨·茫奇-彼得森 Laurits Munch-Petersen (id:1126201)

拉斯·安德烈亚斯·佩德森 Lars Andreas Pedersen (id:1010432)

◎演 员 杰克·吉伦哈尔 Jake Gyllenhaal (id:1048002)

叶海亚·阿卜杜勒-迈丁 Yahya Abdul-Mateen II (id:1374708)

艾莎·冈萨雷斯 Eiza González (id:1233270)

加瑞特·迪拉胡特 Garret Dillahunt (id:1036365)

基尔·奥唐纳 Keir O'Donnell (id:1040575)

杰克逊·怀特 Jackson White (id:1425585)

奥利维亚·斯坦布利亚 Olivia Stambouliah (id:1256030)

摩西·英格拉姆 Moses Ingram (id:1446415)

科林·伍德尔 Colin Woodell (id:1340880)

塞德里克·桑德斯 Cedric Sanders (id:1240253)

A·马丁内斯 A Martinez (id:1125486)

杰西·加西亚 Jesse Garcia (id:1339720)

何塞·巴勃罗·坎蒂略 Jose Pablo Cantillo (id:1000476)

威尔 Wale (id:1253455)

德文·隆恩 Devan Long (id:1413539)

维克多·高佳卡 Victor Gojcaj (id:1226282)

杰米·麦克布莱德 Jamie McBride (id:1000740)

珍·普罗斯克 Jenn Proske (id:1315966)

凯利·陈 Kayli Tran (id:1423781)

布兰登·罗宾逊 Brendan Robinson (id:1316961)

安娜贝勒·格维奇 Annabelle Gurwitch (id:1041271)

刘慈慈 Cici Lau (id:1438404)

切尔西哈里斯 Chelsea Harris (id:1222987)

安迪·费儒 Andy Favreau (id:1390048)

艾恩 Ayne (id:1450293)

◎简 介

本片翻拍自2005年同名丹麦电影,功勋退伍士兵威尔·夏普(叶海亚·阿卜杜勒-迈丁 饰)为救妻子情急之下找到养兄弟丹尼(杰克·吉伦哈尔 饰)求助,却因此被卷入洛杉矶史上最大金额银行抢劫案。在脱身中出现的致命差池,迫使二人挟持了一辆载有一名垂危警察和一位顶尖急救专家卡姆·汤普森(艾莎·冈萨雷斯 饰)的救护车。在这场持久的高速追逐中,威尔和丹尼极力躲避全城警察的大规模搜捕、保证人质的生命安全、努力不对兄弟拔刀相向,同时完成这场洛杉矶有史以来最疯狂且惊险刺激的逃脱。

  1. ##### MediaInfo ######

  2. General

  3. Unique ID : 339720157885857503150368654167568142848 (0xFF93B8F458BAE276ABCE2716E0D5D200)

  4. Complete name : Ambulance.2022.2160p.WEB-DL.HDR.HEVC.Atmos.DDP5.1-OPT.mkv

  5. Format : Matroska

  6. Format version : Version 4

  7. File size : 24.1 GiB

  8. Duration : 2 h 16 min

  9. Overall bit rate : 25.3 Mb/s

  10. Movie name : Ambulance

  11. Encoded date : UTC 2022-05-07 01:27:21

  12. Writing application : mkvmerge v61.0.0 ('So') 64-bit

  13. Writing library : libebml v1.4.2 + libmatroska v1.6.4

  14. Cover : Yes

  15. Attachments : Cover.jpg


  16. Video

  17. ID : 1

  18. Format : HEVC

  19. Format/Info : High Efficiency Video Coding

  20. Format profile : Main [email protected]@High

  21. HDR format : SMPTE ST 2086, HDR10 compatible

  22. Codec ID : V_MPEGH/ISO/HEVC

  23. Duration : 2 h 16 min

  24. Bit rate : 24.5 Mb/s

  25. Width : 3 840 pixels

  26. Height : 2 160 pixels

  27. Display aspect ratio : 16:9

  28. Frame rate mode : Constant

  29. Frame rate : 23.976 (24000/1001/53354) FPS

  30. Color space : YUV

  31. Chroma subsampling : 4:2:0 (Type 2)

  32. Bit depth : 10 bits

  33. Bits/(Pixel*Frame) : 0.123

  34. Stream size : 23.4 GiB (97%)

  35. Language : English

  36. Default : Yes

  37. Forced : No

  38. Color range : Limited

  39. Color primaries : BT.2020

  40. Transfer characteristics : PQ

  41. Matrix coefficients : BT.2020 non-constant

  42. Mastering display color primaries : BT.2020

  43. Mastering display luminance : min: 0.0050 cd/m2, max: 1000 cd/m2

  44. Maximum Content Light Level : 1000 cd/m2

  45. Maximum Frame-Average Light Level : 181 cd/m2


  46. Audio

  47. ID : 2

  48. Format : E-AC-3 JOC

  49. Format/Info : Enhanced AC-3 with Joint Object Coding

  50. Commercial name : Dolby Digital Plus with Dolby Atmos

  51. Codec ID : A_EAC3

  52. Duration : 2 h 16 min

  53. Bit rate mode : Constant

  54. Bit rate : 768 kb/s

  55. Channel(s) : 6 channels

  56. Channel layout : L R C LFE Ls Rs

  57. Sampling rate : 48.0 kHz

  58. Frame rate : 31.250 FPS (1536 SPF)

  59. Compression mode : Lossy

  60. Stream size : 749 MiB (3%)

  61. Language : English

  62. Service kind : Complete Main

  63. Default : Yes

  64. Forced : No

  65. Complexity index : 16

  66. Number of dynamic objects : 15

  67. Bed channel count : 1 channel

  68. Bed channel configuration : LFE


  69. Text #1

  70. ID : 3

  71. Format : UTF-8

  72. Codec ID : S_TEXT/UTF8

  73. Codec ID/Info : UTF-8 Plain Text

  74. Duration : 2 h 16 min

  75. Bit rate : 93 b/s

  76. Count of elements : 3072

  77. Stream size : 93.0 KiB (0%)

  78. Title : English [SDH]

  79. Language : English

  80. Default : No

  81. Forced : No


  82. Text #2

  83. ID : 4

  84. Format : UTF-8

  85. Codec ID : S_TEXT/UTF8

  86. Codec ID/Info : UTF-8 Plain Text

  87. Duration : 2 h 15 min

  88. Bit rate : 84 b/s

  89. Count of elements : 2850

  90. Stream size : 83.8 KiB (0%)

  91. Title : English

  92. Language : English

  93. Default : No

  94. Forced : No


  95. Text #3

  96. ID : 5

  97. Format : UTF-8

  98. Codec ID : S_TEXT/UTF8

  99. Codec ID/Info : UTF-8 Plain Text

  100. Duration : 2 h 14 min

  101. Bit rate : 78 b/s

  102. Count of elements : 2341

  103. Stream size : 77.4 KiB (0%)

  104. Title : French Canadian

  105. Language : French

  106. Default : No

  107. Forced : No


  108. Text #4

  109. ID : 6

  110. Format : UTF-8

  111. Codec ID : S_TEXT/UTF8

  112. Codec ID/Info : UTF-8 Plain Text

  113. Duration : 2 h 15 min

  114. Bit rate : 71 b/s

  115. Count of elements : 2364

  116. Stream size : 71.1 KiB (0%)

  117. Title : Spanish

  118. Language : Spanish

  119. Default : No

  120. Forced : No


  121. Text #5

  122. ID : 7

  123. Format : UTF-8

  124. Codec ID : S_TEXT/UTF8

  125. Codec ID/Info : UTF-8 Plain Text

  126. Duration : 2 h 13 min

  127. Bit rate : 75 b/s

  128. Count of elements : 2615

  129. Stream size : 74.1 KiB (0%)

  130. Title : 简体中字

  131. Language : Chinese

  132. Default : Yes

  133. Forced : No


  134. Text #6

  135. ID : 8

  136. Format : UTF-8

  137. Codec ID : S_TEXT/UTF8

  138. Codec ID/Info : UTF-8 Plain Text

  139. Duration : 2 h 13 min

  140. Bit rate : 75 b/s

  141. Count of elements : 2615

  142. Stream size : 74.1 KiB (0%)

  143. Title : 繁体中字

  144. Language : Chinese

  145. Default : Yes

  146. Forced : No


  147. Text #7

  148. ID : 9

  149. Format : ASS

  150. Codec ID : S_TEXT/ASS

  151. Codec ID/Info : Advanced Sub Station Alpha

  152. Duration : 2 h 13 min

  153. Bit rate : 158 b/s

  154. Count of elements : 2615

  155. Compression mode : Lossless

  156. Stream size : 155 KiB (0%)

  157. Title : 简体中字

  158. Language : Chinese

  159. Default : Yes

  160. Forced : No


  161. Text #8

  162. ID : 10

  163. Format : ASS

  164. Codec ID : S_TEXT/ASS

  165. Codec ID/Info : Advanced Sub Station Alpha

  166. Duration : 2 h 13 min

  167. Bit rate : 158 b/s

  168. Count of elements : 2615

  169. Compression mode : Lossless

  170. Stream size : 155 KiB (0%)

  171. Title : 繁体中字

  172. Language : Chinese

  173. Default : Yes

  174. Forced : No


  175. Menu

  176. 00:00:00.000 : Chapter 1

  177. 00:07:55.000 : Chapter 2

  178. 00:15:40.000 : Chapter 3

  179. 00:22:55.000 : Chapter 4

  180. 00:29:56.000 : Chapter 5

  181. 00:36:58.000 : Chapter 6

  182. 00:43:24.000 : Chapter 7

  183. 00:49:30.000 : Chapter 8

  184. 00:56:03.000 : Chapter 9

  185. 01:02:30.000 : Chapter 10

  186. 01:07:04.000 : Chapter 11

  187. 01:12:39.000 : Chapter 12

  188. 01:20:54.000 : Chapter 13

  189. 01:31:06.000 : Chapter 14

  190. 01:39:57.000 : Chapter 15

  191. 01:49:40.000 : Chapter 16

  192. 01:55:58.000 : Chapter 17

  193. 02:00:37.000 : Chapter 18

  194. 02:06:43.000 : Chapter 19

  195. 02:13:38.000 : Chapter 20



文件下载


除非特别注明,本文『亡命救护车[HDR版本][简繁英字幕].Ambulance.2022.2160p.WEB-DL.HDR.HEVC.Atmos.DDP5.1-OPT 24.10GB』来源于互联网机器人自动抓取,非本站原创。 浮游电影网不对本文拥有版权,如有侵犯,请联系邮箱:fuyouu#yandex.com[#换成@]投诉。我们会在15个工作日内删除。 但烦请转载时请标明出处:“本文转载于『浮游电影网』,原文地址:https://www.fuyouu.com/21976.html

评论吧骚年!

发表你的见解   

昵称*

E-mail*(建议输入,以便收到博主回复的提示邮件)

验证码*

您可以使用eMule或eMule Mod(Windows)、aMule(Win、Linux、Mac)等软件下载eD2k链接。。
eMule收藏集(.emulecollection)文件是您选中的所有链接的列表文件。eMule可以直接下载它们。
按住SHIFT键选择可以选中多个选择框。
可用文件名和大小选择器来选择文件。
文件名选择器帮您根据文件名称或后缀来选择文件。不分大小写。
符号使用:
和:空格( )、+
不包含:-
或:|
转义:一对英文引号("");
匹配开头:^
匹配结尾:$
例如:
选中所有名称中包含有“eMule”或“0.49c”字眼,但不包含有“exe”字眼的:emule|0.49c -exe
选中所有名称的开头是“eMule”,结尾是“0.49c”的:^emule 0.49c$
选中所有名称中带有“eMule 0.49c”的(必须是“eMule 0.49c”,中间没有别的字符,不能是“eMule fake 0.49c”),需要转义:"emule 0.49c"
大小选择器帮您根据文件大小选择文件。