当前位置: 首页 >> 欧美电影 >> 黑暗侵袭[共2部合集][简繁英字幕].The.Descent.1-2.2005-2009.BluRay.1080p.DTS-HD.MA.5.1.x265.10bit-ALT 15.78GB >> 正文

黑暗侵袭[共2部合集][简繁英字幕].The.Descent.1-2.2005-2009.BluRay.1080p.DTS-HD.MA.5.1.x265.10bit-ALT 15.78GB

2022年05月08日 23:06:03     电影发布:来源于网络     电影分类:欧美电影     评论(0)    

◎译 名 黑暗侵袭 / 深入绝地(台) / 魔洞 / 暗袭 / 魔窟

◎片 名 The Descent

◎年 代 2005

◎产 地 英国 / 法国

◎类 别 惊悚 / 恐怖 / 冒险

◎语 言 英语

◎上映日期 2005-07-08(英国)

◎IMDb链接 https://www.imdb.com/title/tt0435625/

◎豆瓣评分 7.6/10 (97231人评价)

◎豆瓣链接 https://movie.douban.com/subject/1437109/

◎片 长 99 分钟

◎导 演 尼尔·马歇尔 Neil Marshall (id:1018056)

◎编 剧 尼尔·马歇尔 Neil Marshall (id:1018056)

◎演 员 肖娜·麦克唐纳 Shauna Macdonald (id:1329033)

娜塔莉·杰克逊·门多萨 Natalie Jackson Mendoza (id:1022738)

阿里克斯·瑞德 Alex Reid (id:1344876)

萨斯基亚·马尔德 Saskia Mulder (id:1045220)

玛安娜·本灵 MyAnna Buring (id:1049738)

诺拉简·努恩 Nora-Jane Noone (id:1210392)

奥列佛·米尔本 Oliver Milburn (id:1032351)

克雷格·康威 Craig Conway (id:1397367)

克里斯蒂安·科尔森 Christian Colson (id:1306361)

大卫·朱莱安 David Julyan (id:1388516)

詹森·诺克斯·约翰斯顿 Jason Knox-Johnston (id:1288785)

Simon Bowles Simon Bowles (id:1276254)

◎简 介

莎拉(肖娜·麦克唐纳 饰)本来平静幸福的生活被一次车祸意外打破,丈夫和女儿在事故中丧生,她虽然活了下来却从此一蹶不振,为了让莎拉重新振作起来,她的五个女性朋友为她安排了一次探险旅行,地点是在一个丛林中荒僻而古老洞穴,茹诺(娜塔丽·杰克逊·门多萨 饰)是其中最有野外探险经验也是她选择来到这里。正当女孩们对山洞中景色惊叹不已时,却在不知不觉中惊扰了洞中另外一种生物,他们没有视觉,依靠声音的来源残忍的捕杀她们,女孩们为了自救团结起来,却在逃生中朋友间互生怀疑,为了生存下去,她们要如何在狭小黑暗的洞穴中找到出去的路呢?

  1. 合集文件列表:

  2. 1.The.Descent.2005.BluRay.1080p.DTS-HD.MA.5.1.x265.10bit-ALT.mkv 7.90GB

  3. 2.The.Descent.Part.2.2009.BluRay.1080p.DTS-HD.MA.5.1.x265.10bit-ALT.mkv 7.87GB


复制代码

  1. ##### MediaInfo ######

  2. General

  3. Unique ID : 118023060359044760603927606468213031093 (0x58CA6A23B5699A7C927B123144BD40B5)

  4. Complete name : The.Descent.2005.BluRay.1080p.DTS-HD.MA.5.1.x265.10bit-ALT.mkv

  5. Format : Matroska

  6. Format version : Version 4

  7. File size : 7.90 GiB

  8. Duration : 1 h 43 min

  9. Overall bit rate mode : Variable

  10. Overall bit rate : 10.9 Mb/s

  11. Encoded date : UTC 2019-12-08 04:39:09

  12. Writing application : mkvmerge v41.0.0 ('Smarra') 64-bit

  13. Writing library : libebml v1.3.9 + libmatroska v1.5.2


  14. Video

  15. ID : 1

  16. Format : HEVC

  17. Format/Info : High Efficiency Video Coding

  18. Format profile : Main [email protected]@High

  19. HDR format : SMPTE ST 2086

  20. Codec ID : V_MPEGH/ISO/HEVC

  21. Duration : 1 h 39 min

  22. Bit rate : 8 850 kb/s

  23. Width : 1 920 pixels

  24. Height : 820 pixels

  25. Display aspect ratio : 2.35:1

  26. Frame rate mode : Constant

  27. Frame rate : 24.000 FPS

  28. Color space : YUV

  29. Chroma subsampling : 4:2:0

  30. Bit depth : 10 bits

  31. Bits/(Pixel*Frame) : 0.234

  32. Stream size : 6.14 GiB (78%)

  33. Title : HEVC, [email protected]@High, 24 fps @ 8850 kbps

  34. Writing library : x265 3.0_Au+4-dcbec33bfb0f:[Windows][GCC 8.2.1][64 bit] 10bit

  35. Encoding settings : cpuid=533541111039 / frame-threads=4 / numa-pools=12,12 / wpp / pmode / pme / no-psnr / no-ssim / log-level=2 / input-csp=1 / input-res=1920x820 / interlace=0 / total-frames=143136 / level-idc=51 / high-tier=1 / uhd-bd=0 / ref=5 / no-allow-non-conformance / repeat-headers / annexb / no-aud / no-hrd / info / hash=0 / no-temporal-layers / no-open-gop / min-keyint=24 / keyint=240 / gop-lookahead=0 / bframes=6 / b-adapt=2 / b-pyramid / bframe-bias=0 / rc-lookahead=40 / lookahead-slices=0 / NTMzNTQ=uuDQuD2mJt9fsCf / scenecut=40 / radl=0 / no-splice / no-intra-refresh / ctu=32 / min-cu-size=8 / no-rect / no-amp / max-tu-size=32 / tu-inter-depth=3 / tu-intra-depth=3 / limit-tu=4 / rdoq-level=2 / dynamic-rd=0.00 / no-ssim-rd / signhide / no-tskip / nr-intra=0 / nr-inter=0 / no-constrained-intra / no-strong-intra-smoothing / max-merge=4 / limit-refs=1 / limit-modes / me=3 / subme=4 / merange=25 / temporal-mvp / weightp / weightb / no-analyze-src-pics / deblock=-3:-3 / no-sao / no-sao-non-deblock / rd=6 / no-early-skip / rskip / no-fast-intra / no-tskip-fast / no-cu-lossless / b-intra / no-splitrd-skip / rdpenalty=0 / psy-rd=2.00 / psy-rdoq=1.00 / no-rd-refine / no-lossless / cbqpoffs=0 / crqpoffs=0 / rc=crf / crf=18.5 / qcomp=0.65 / qpstep=4 / stats-write=0 / stats-read=0 / vbv-maxrate=80000 / vbv-bufsize=80000 / vbv-init=0.9 / crf-max=0.0 / crf-min=0.0 / ipratio=1.40 / pbratio=1.30 / aq-mode=2 / aq-strength=0.85 / cutree / zone-count=0 / no-strict-cbr / qg-size=32 / no-rc-grain / qpmax=69 / qpmin=0 / no-const-vbv / sar=1 / overscan=0 / videoformat=5 / range=0 / colorprim=1 / transfer=1 / colormatrix=1 / chromaloc=0 / display-window=0 / master-display=G(15000,30000)B(7500,3000)R(32000,16500)WP(15635,16450)L(10000000,1) / max-cll=1000,1 / min-luma=0 / max-luma=1023 / log2-max-poc-lsb=8 / vui-timing-info / vui-hrd-info / slices=1 / no-opt-qp-pps / no-opt-ref-list-length-pps / no-multi-pass-opt-rps / scenecut-bias=0.05 / no-opt-cu-delta-qp / no-aq-motion / hdr / no-hdr-opt / no-dhdr10-opt / no-idr-recovery-sei / analysis-reuse-level=5 / scale-factor=0 / refine-intra=0 / refine-inter=0 / refine-mv=0 / refine-ctu-distortion=0 / no-limit-sao / ctu-info=0 / no-lowpass-dct / refine-analysis-type=0 / copy-pic=1 / max-ausize-factor=1.0 / no-dynamic-refine / no-single-sei / no-hevc-aq / qp-adaptation-range=1.00

  36. Language : English

  37. Default : Yes

  38. Forced : No

  39. Color range : Limited

  40. Color primaries : BT.709

  41. Transfer characteristics : BT.709

  42. Matrix coefficients : BT.709

  43. Mastering display color primaries : BT.709

  44. Mastering display luminance : min: 0.0001 cd/m2, max: 1000 cd/m2

  45. Maximum Content Light Level : 1000 cd/m2

  46. Maximum Frame-Average Light Level : 1 cd/m2


  47. Audio #1

  48. ID : 2

  49. Format : DTS XLL

  50. Format/Info : Digital Theater Systems

  51. Commercial name : DTS-HD Master Audio

  52. Codec ID : A_DTS

  53. Duration : 1 h 43 min

  54. Bit rate mode : Variable

  55. Bit rate : 2 213 kb/s

  56. Channel(s) : 6 channels

  57. Channel layout : C L R Ls Rs LFE

  58. Sampling rate : 48.0 kHz

  59. Frame rate : 93.750 FPS (512 SPF)

  60. Bit depth : 16 bits

  61. Compression mode : Lossless

  62. Stream size : 1.60 GiB (20%)

  63. Title : English DTS-HD Master Audio 5.1 @ 2300 kbps

  64. Language : English

  65. Default : Yes

  66. Forced : No


  67. Audio #2

  68. ID : 3

  69. Format : AC-3

  70. Format/Info : Audio Coding 3

  71. Commercial name : Dolby Digital

  72. Codec ID : A_AC3

  73. Duration : 1 h 39 min

  74. Bit rate mode : Constant

  75. Bit rate : 192 kb/s

  76. Channel(s) : 2 channels

  77. Channel layout : L R

  78. Sampling rate : 48.0 kHz

  79. Frame rate : 31.250 FPS (1536 SPF)

  80. Compression mode : Lossy

  81. Stream size : 137 MiB (2%)

  82. Title : English Dolby Digital Audio 2.0 @ 192 kbps Commentary

  83. Language : English

  84. Service kind : Complete Main

  85. Default : No

  86. Forced : No


  87. Text #1

  88. ID : 4

  89. Format : PGS

  90. Codec ID : S_HDMV/PGS

  91. Codec ID/Info : Picture based subtitle format used on BDs/HD-DVDs

  92. Duration : 1 h 32 min

  93. Bit rate : 15.0 kb/s

  94. Count of elements : 1578

  95. Stream size : 9.94 MiB (0%)

  96. Title : Eng/SUP

  97. Language : English

  98. Default : No

  99. Forced : No


  100. Text #2

  101. ID : 5

  102. Format : PGS

  103. Codec ID : S_HDMV/PGS

  104. Codec ID/Info : Picture based subtitle format used on BDs/HD-DVDs

  105. Duration : 1 h 29 min

  106. Bit rate : 12.7 kb/s

  107. Count of elements : 1464

  108. Stream size : 8.13 MiB (0%)

  109. Title : Chs/SUP 简体

  110. Language : Chinese

  111. Default : Yes

  112. Forced : No


  113. Text #3

  114. ID : 6

  115. Format : PGS

  116. Codec ID : S_HDMV/PGS

  117. Codec ID/Info : Picture based subtitle format used on BDs/HD-DVDs

  118. Duration : 1 h 29 min

  119. Bit rate : 13.2 kb/s

  120. Count of elements : 1464

  121. Stream size : 8.48 MiB (0%)

  122. Title : Cht/SUP 繁体

  123. Language : Chinese

  124. Default : No

  125. Forced : No


  126. Menu

  127. 00:00:00.000 : en:第 01 章

  128. 00:06:01.833 : en:第 02 章

  129. 00:13:59.750 : en:第 03 章

  130. 00:21:13.166 : en:第 04 章

  131. 00:28:18.125 : en:第 05 章

  132. 00:34:45.250 : en:第 06 章

  133. 00:44:59.458 : en:第 07 章

  134. 00:54:41.583 : en:第 08 章

  135. 01:02:27.458 : en:第 09 章

  136. 01:13:24.791 : en:第 10 章

  137. 01:18:38.250 : en:第 11 章

  138. 01:24:35.041 : en:第 12 章

  139. 01:30:35.041 : en:第 13 章

  140. 01:35:07.708 : en:第 14 章




复制代码



文件下载


除非特别注明,本文『黑暗侵袭[共2部合集][简繁英字幕].The.Descent.1-2.2005-2009.BluRay.1080p.DTS-HD.MA.5.1.x265.10bit-ALT 15.78GB』来源于互联网机器人自动抓取,非本站原创。 浮游电影网不对本文拥有版权,如有侵犯,请联系邮箱:fuyouu#yandex.com[#换成@]投诉。我们会在15个工作日内删除。 但烦请转载时请标明出处:“本文转载于『浮游电影网』,原文地址:https://www.fuyouu.com/21971.html

评论吧骚年!

发表你的见解   

昵称*

E-mail*(建议输入,以便收到博主回复的提示邮件)

验证码*

您可以使用eMule或eMule Mod(Windows)、aMule(Win、Linux、Mac)等软件下载eD2k链接。。
eMule收藏集(.emulecollection)文件是您选中的所有链接的列表文件。eMule可以直接下载它们。
按住SHIFT键选择可以选中多个选择框。
可用文件名和大小选择器来选择文件。
文件名选择器帮您根据文件名称或后缀来选择文件。不分大小写。
符号使用:
和:空格( )、+
不包含:-
或:|
转义:一对英文引号("");
匹配开头:^
匹配结尾:$
例如:
选中所有名称中包含有“eMule”或“0.49c”字眼,但不包含有“exe”字眼的:emule|0.49c -exe
选中所有名称的开头是“eMule”,结尾是“0.49c”的:^emule 0.49c$
选中所有名称中带有“eMule 0.49c”的(必须是“eMule 0.49c”,中间没有别的字符,不能是“eMule fake 0.49c”),需要转义:"emule 0.49c"
大小选择器帮您根据文件大小选择文件。