当前位置: 首页 >> 欧美电影 >> 讨债人[共2部合集][简繁字幕].The.Debt.Collector.1-2.2018-2020.BluRay.1080p.DTS-HD.MA5.1.x265.10bit-ALT 10.18GB >> 正文

讨债人[共2部合集][简繁字幕].The.Debt.Collector.1-2.2018-2020.BluRay.1080p.DTS-HD.MA5.1.x265.10bit-ALT 10.18GB

2022年05月08日 23:05:12     电影发布:来源于网络     电影分类:欧美电影     评论(0)    

◎译 名 讨债人 / The Pay Up

◎片 名 The Debt Collector

◎年 代 2018

◎产 地 美国

◎类 别 动作 / 犯罪

◎语 言 英语

◎上映日期 2018-04-26(德国) / 2018-06-05(美国)

◎IMDb链接 https://www.imdb.com/title/tt7448180/

◎豆瓣评分 6.1/10 (1633人评价)

◎豆瓣链接 https://movie.douban.com/subject/27166013/

◎片 长 95分钟

◎导 演 杰西·约翰逊 Jesse V. Johnson (id:1103525)

◎编 剧 杰西·约翰逊 Jesse V. Johnson (id:1103525)

◎演 员 斯科特·阿金斯 Scott Adkins (id:1017912)

路易·曼迪勒 Louis Mandylor (id:1049820)

托尼·托德 Tony Todd (id:1036498)

◎简 介

斯科特·阿金斯继《失忆格斗士》《野蛮狗》《三重威胁》和《意外杀手》之后第五次与导演杰西·约翰逊合作的犯罪动作片。

弗兰奇(斯科特·阿金斯 Scott Adkins 饰演)最近面临着诸多债务问题:他在城中开设的武馆经营不善并且经常被人上门找麻烦,自己也可能因交不起房租而随时 无家可归,而爱情方面更是无暇顾及、毫无进展。于是弗兰奇打算铤而走险,接受了一份讨债人的工作,他需要冒着生命危险替雇主以暴力手段逼迫欠债人还债或施加压力,而和他搭档的是一位名字叫苏(路易斯·曼迪勒 Louis Mandylor 饰演)的前警署探员。于是这对看似奇怪的组合开着轿车,在一条逐渐失控的讨债道路上越走越远。

  1. 合集文件列表:

  2. 1.The.Debt.Collector.2.2020.BluRay.1080p.DTS-HD.MA5.1.x265.10bit-ALT.mkv 5.13GB

  3. 2.The.Debt.Collector.2018.BluRay.1080p.DTS-HD.MA5.1.x265.10bit-ALT.mkv 5.05GB


复制代码

  1. ##### MediaInfo ######

  2. General

  3. Unique ID : 129240364888464019250918748724604257675 (0x613AC9F3CAC87A4916DD69B57569458B)

  4. Complete name : The.Debt.Collector.2.2020.BluRay.1080p.DTS-HD.MA5.1.x265.10bit-ALT.mkv

  5. Format : Matroska

  6. Format version : Version 4

  7. File size : 5.13 GiB

  8. Duration : 1 h 37 min

  9. Overall bit rate mode : Variable

  10. Overall bit rate : 7 545 kb/s

  11. Encoded date : UTC 2020-10-25 04:09:02

  12. Writing application : mkvmerge v49.0.0 ('Sick Of Losing Soulmates') 64-bit

  13. Writing library : libebml v1.4.0 + libmatroska v1.6.1


  14. Video

  15. ID : 1

  16. Format : HEVC

  17. Format/Info : High Efficiency Video Coding

  18. Format profile : Main [email protected]@High

  19. Codec ID : V_MPEGH/ISO/HEVC

  20. Duration : 1 h 37 min

  21. Bit rate : 5 695 kb/s

  22. Width : 1 920 pixels

  23. Height : 804 pixels

  24. Display aspect ratio : 2.40:1

  25. Frame rate mode : Constant

  26. Frame rate : 23.976 (24000/1001/53354) FPS

  27. Color space : YUV

  28. Chroma subsampling : 4:2:0

  29. Bit depth : 10 bits

  30. Bits/(Pixel*Frame) : 0.154

  31. Stream size : 3.88 GiB (75%)

  32. Title : HEVC, [email protected]@High, 24/1.001 fps @ 5695 kbps

  33. Writing library : x265 3.4+14-gd419c7152:[Windows][GCC 10.2.0][64 bit] 10bit

  34. Encoding settings : cpuid=533541111039 / frame-threads=5 / numa-pools=44,44 / wpp / pmode / pme / no-psnr / no-ssim / log-level=2 / input-csp=1 / input-res=1920x804 / interlace=0 / total-frames=140137 / level-idc=51 / high-tier=1 / uhd-bd=0 / ref=5 / no-allow-non-conformance / no-repeat-headers / annexb / no-aud / no-hrd / info / hash=0 / no-temporal-layers / open-gop / min-keyint=24 / keyint=240 / gop-lookahead=0 / bframes=6 / b-adapt=2 / b-pyramid / bframe-bias=0 / rc-lookahead=40 / lookahead-slices=0 / NTMzNTQ=uuDQuD2mJt9fsCf / scenecut=40 / hist-scenecut=0 / radl=0 / no-splice / no-intra-refresh / ctu=32 / min-cu-size=8 / no-rect / no-amp / max-tu-size=32 / tu-inter-depth=3 / tu-intra-depth=3 / limit-tu=4 / rdoq-level=2 / dynamic-rd=0.00 / no-ssim-rd / signhide / no-tskip / nr-intra=0 / nr-inter=0 / no-constrained-intra / no-strong-intra-smoothing / max-merge=4 / limit-refs=1 / limit-modes / me=3 / subme=4 / merange=25 / temporal-mvp / no-frame-dup / no-hme / weightp / weightb / no-analyze-src-pics / deblock=-3:-3 / no-sao / no-sao-non-deblock / rd=6 / selective-sao=0 / no-early-skip / rskip / no-fast-intra / no-tskip-fast / no-cu-lossless / b-intra / no-splitrd-skip / rdpenalty=0 / psy-rd=2.00 / psy-rdoq=1.00 / no-rd-refine / no-lossless / cbqpoffs=0 / crqpoffs=0 / rc=crf / crf=17.0 / qcomp=0.65 / qpstep=4 / stats-write=0 / stats-read=0 / vbv-maxrate=80000 / vbv-bufsize=80000 / vbv-init=0.9 / crf-max=0.0 / crf-min=0.0 / ipratio=1.40 / pbratio=1.30 / aq-mode=2 / aq-strength=0.85 / cutree / zone-count=0 / no-strict-cbr / qg-size=32 / no-rc-grain / qpmax=69 / qpmin=0 / no-const-vbv / sar=1 / overscan=0 / videoformat=5 / range=0 / colorprim=1 / transfer=1 / colormatrix=1 / chromaloc=0 / display-window=0 / cll=0,0 / min-luma=0 / max-luma=1023 / log2-max-poc-lsb=8 / vui-timing-info / vui-hrd-info / slices=1 / no-opt-qp-pps / no-opt-ref-list-length-pps / no-multi-pass-opt-rps / scenecut-bias=0.05 / hist-threshold=0.03 / no-opt-cu-delta-qp / no-aq-motion / no-hdr10 / no-hdr10-opt / no-dhdr10-opt / no-idr-recovery-sei / analysis-reuse-level=0 / analysis-save-reuse-level=0 / analysis-load-reuse-level=0 / scale-factor=0 / refine-intra=0 / refine-inter=0 / refine-mv=1 / refine-ctu-distortion=0 / no-limit-sao / ctu-info=0 / no-lowpass-dct / refine-analysis-type=0 / copy-pic=1 / max-ausize-factor=1.0 / no-dynamic-refine / no-single-sei / no-hevc-aq / no-svt / no-field / qp-adaptation-range=1.00 / no-scenecut-aware-qpconformance-window-offsets / right=0 / bottom=0 / NTMzNTQ= / decoder-max-rate=0

  35. Language : English

  36. Default : Yes

  37. Forced : No

  38. Color range : Limited

  39. Color primaries : BT.709

  40. Transfer characteristics : BT.709

  41. Matrix coefficients : BT.709


  42. Audio

  43. ID : 2

  44. Format : DTS XLL

  45. Format/Info : Digital Theater Systems

  46. Commercial name : DTS-HD Master Audio

  47. Codec ID : A_DTS

  48. Duration : 1 h 37 min

  49. Bit rate mode : Variable

  50. Bit rate : 1 651 kb/s

  51. Channel(s) : 6 channels

  52. Channel layout : C L R Ls Rs LFE

  53. Sampling rate : 48.0 kHz

  54. Frame rate : 93.750 FPS (512 SPF)

  55. Bit depth : 16 bits

  56. Compression mode : Lossless

  57. Stream size : 1.12 GiB (22%)

  58. Title : English DTS-HD Master Audio 5.1 @ 1651 kbps

  59. Language : English

  60. Default : Yes

  61. Forced : No


  62. Text #1

  63. ID : 3

  64. Format : PGS

  65. Codec ID : S_HDMV/PGS

  66. Codec ID/Info : Picture based subtitle format used on BDs/HD-DVDs

  67. Duration : 1 h 32 min

  68. Bit rate : 37.2 kb/s

  69. Count of elements : 3073

  70. Stream size : 24.7 MiB (0%)

  71. Title : Chs/SUP 简体

  72. Language : Chinese

  73. Default : Yes

  74. Forced : No


  75. Text #2

  76. ID : 4

  77. Format : PGS

  78. Codec ID : S_HDMV/PGS

  79. Codec ID/Info : Picture based subtitle format used on BDs/HD-DVDs

  80. Duration : 1 h 32 min

  81. Bit rate : 38.7 kb/s

  82. Count of elements : 3073

  83. Stream size : 25.7 MiB (0%)

  84. Title : Cht/SUP 繁体

  85. Language : Chinese

  86. Default : No

  87. Forced : No


  88. Text #3

  89. ID : 5

  90. Format : PGS

  91. Codec ID : S_HDMV/PGS

  92. Codec ID/Info : Picture based subtitle format used on BDs/HD-DVDs

  93. Duration : 1 h 32 min

  94. Bit rate : 63.4 kb/s

  95. Count of elements : 3075

  96. Stream size : 42.1 MiB (1%)

  97. Title : Chs/SUP 简英双语

  98. Language : Chinese

  99. Default : No

  100. Forced : No


  101. Text #4

  102. ID : 6

  103. Format : PGS

  104. Codec ID : S_HDMV/PGS

  105. Codec ID/Info : Picture based subtitle format used on BDs/HD-DVDs

  106. Duration : 1 h 32 min

  107. Bit rate : 64.9 kb/s

  108. Count of elements : 3075

  109. Stream size : 43.1 MiB (1%)

  110. Title : Cht/SUP 繁英双语

  111. Language : Chinese

  112. Default : No

  113. Forced : No


  114. Menu

  115. 00:00:00.000 : :第 01 章

  116. 00:07:26.279 : :第 02 章

  117. 00:19:40.805 : :第 03 章

  118. 00:29:06.411 : :第 04 章

  119. 00:35:54.069 : :第 05 章

  120. 00:44:08.646 : :第 06 章

  121. 00:49:22.793 : :第 07 章

  122. 00:53:32.709 : :第 08 章

  123. 01:06:05.753 : :第 09 章

  124. 01:17:02.409 : :第 10 章

  125. 01:29:06.466 : :第 11 章

  126. 01:33:40.281 : :第 12 章




复制代码



文件下载


除非特别注明,本文『讨债人[共2部合集][简繁字幕].The.Debt.Collector.1-2.2018-2020.BluRay.1080p.DTS-HD.MA5.1.x265.10bit-ALT 10.18GB』来源于互联网机器人自动抓取,非本站原创。 浮游电影网不对本文拥有版权,如有侵犯,请联系邮箱:fuyouu#yandex.com[#换成@]投诉。我们会在15个工作日内删除。 但烦请转载时请标明出处:“本文转载于『浮游电影网』,原文地址:https://www.fuyouu.com/21970.html

评论吧骚年!

发表你的见解   

昵称*

E-mail*(建议输入,以便收到博主回复的提示邮件)

验证码*

您可以使用eMule或eMule Mod(Windows)、aMule(Win、Linux、Mac)等软件下载eD2k链接。。
eMule收藏集(.emulecollection)文件是您选中的所有链接的列表文件。eMule可以直接下载它们。
按住SHIFT键选择可以选中多个选择框。
可用文件名和大小选择器来选择文件。
文件名选择器帮您根据文件名称或后缀来选择文件。不分大小写。
符号使用:
和:空格( )、+
不包含:-
或:|
转义:一对英文引号("");
匹配开头:^
匹配结尾:$
例如:
选中所有名称中包含有“eMule”或“0.49c”字眼,但不包含有“exe”字眼的:emule|0.49c -exe
选中所有名称的开头是“eMule”,结尾是“0.49c”的:^emule 0.49c$
选中所有名称中带有“eMule 0.49c”的(必须是“eMule 0.49c”,中间没有别的字符,不能是“eMule fake 0.49c”),需要转义:"emule 0.49c"
大小选择器帮您根据文件大小选择文件。