当前位置: 首页 >> 欧美电影 >> 达·芬奇密码[共3部合集][简繁英字幕].The.Da.Vinci.Code.Collection.2006-2016.BluRay.1080p.DTS-HD.MA.5.1.x265.10bit-AL >> 正文

达·芬奇密码[共3部合集][简繁英字幕].The.Da.Vinci.Code.Collection.2006-2016.BluRay.1080p.DTS-HD.MA.5.1.x265.10bit-AL

2022年05月08日 23:04:07     电影发布:来源于网络     电影分类:欧美电影     评论(0)    

◎译 名 达·芬奇密码 / 达文西密码(港 / 台) / 达芬奇密码

◎片 名 The Da Vinci Code

◎年 代 2006

◎产 地 美国 / 马耳他 / 法国 / 英国

◎类 别 悬疑 / 惊悚

◎语 言 英语 / 法语 / 拉丁语 / 西班牙语

◎上映日期 2006-05-19(美国/中国大陆)

◎IMDb链接 https://www.imdb.com/title/tt0382625/

◎豆瓣评分 7.4/10 (232043人评价)

◎豆瓣链接 https://movie.douban.com/subject/1329950/

◎片 长 149 分钟

◎导 演 朗·霍华德 Ron Howard (id:1031844)

◎编 剧 阿齐瓦·高斯曼 Akiva Goldsman (id:1009507)

丹·布朗 Dan Brown (id:1009608)

◎演 员 汤姆·汉克斯 Tom Hanks (id:1054450)

奥黛丽·塔图 Audrey Tautou (id:1004860)

伊恩·麦克莱恩 Ian McKellen (id:1054410)

让·雷诺 Jean Reno (id:1025182)

保罗·贝坦尼 Paul Bettany (id:1003482)

阿尔弗雷德·莫里纳 Alfred Molina (id:1017897)

尤尔根·普洛斯诺 Jürgen Prochnow (id:1019048)

让-伊夫·贝特鲁 Jean-Yves Berteloot (id:1278527)

伊什尼·齐科特 Etienne Chicot (id:1048394)

让-皮埃尔·马里埃尔 Jean-Pierre Marielle (id:1118315)

玛丽-佛朗索瓦·奥多伦 Marie-Fran?oise Audollent (id:1020177)

弗朗切斯科·卡尔内卢蒂 Francesco Carnelutti (id:1077479)

塞斯·盖贝尔 Seth Gabel (id:1027244)

马太·巴特勒 Matthew Butler (id:1018782)

埃格兰婷·朗博维尔-尼科尔 Eglantine Rembauville-Nicolle (id:1312764)

福斯托马里亚夏拉帕 Fausto Maria Sciarappa (id:1358871)

丹·托多夫斯基 Dan Tondowski (id:1376487)

赵慎之 Shenzhi Zhao (id:1334648)

丹·布朗 Dan Brown (id:1009608)

吴文伦 Wenlun Wu (id:1341235)

诺曼·坎贝尔·里斯 Norman Campbell Rees (id:1184297)

彼得·佩德罗 Peter Pedrero (id:1294193)

克里斯托弗·福什 Christopher Fosh (id:1045602)

阿加特·纳坦松 Agathe Natanson (id:1129910)

Andy Robb Andy Robb (id:1138474)

Andy Clark Andy Clark (id:1169249)

休·米切尔 Hugh Mitchell (id:1170930)

西蒙·洛克伍德 Simon Lockwood (id:1272774)

Rob McGillivray Rob McGillivray (id:1266703)

Didier Dell Benjamin Didier Dell Benjamin (id:1233447)

Anna Cachia Anna Cachia (id:1258205)

夏洛特·格雷厄姆 Charlotte Graham (id:1243096)

Lionel Guy-Bremond Lionel Guy-Bremond (id:1246478)

德尼·波达利德斯 Denis Podalydès (id:1048414)

保罗·赫伯特 Paul Herbert (id:1286474)

迈克尔·伯滕肖 Michael Bertenshaw (id:1066718)

谢丽尔·霍华德 Cheryl Howard (id:1094520)

Brock Little Brock Little (id:1115939)

Laine Edwards Laine Edwards (id:1246568)

Rachael Black Rachael Black (id:1244516)

凯思琳·麦吉尔 Kathleen McGill (id:1291581)

Todd Hallowell Todd Hallowell (id:1285874)

约翰·凯利 John Calley (id:1279904)

布莱恩·格雷泽 Brian Grazer (id:1010703)

丹·布朗 Dan Brown (id:1009608)

朗·霍华德 Ron Howard (id:1031844)

汉斯·季默 Hans Zimmer (id:1054386)

萨尔瓦托雷·托蒂诺 Salvatore Totino (id:1443962)

丹尼尔·P·汉利 Daniel P. Hanley (id:1285965)

迈克·希尔 Mike Hill (id:1286636)

珍妮特·希尔森 Janet Hirshenson (id:1286699)

简·詹金斯 Jane Jenkins (id:1103031)

托尼·里丁 Tony Reading (id:1295322)

Giles Masters Giles Masters (id:1291242)

Allan Cameron Allan Cameron (id:1279941)

理查德·罗伯茨 Richard Roberts (id:1295779)

丹尼尔·奥兰迪 Daniel Orlandi (id:1293628)

维罗妮卡·麦克阿利尔 Veronica McAleer (id:1279226)

诺玛·韦伯 Norma Webb (id:1300554)

大卫·怀特 David White (id:1300803)

弗朗西丝·汉农 Frances Hannon (id:1285986)

保罗·古奇 Paul Gooch (id:1285130)

丹尼尔C.斯瑞派克 Daniel C. Striepeke (id:1028832)

Sylvain Bressolette (id:1237553)

Jeremy Pronier (id:1253836)

Virginie Bernard (id:1253334)

克里斯托夫·佩里 Christophe Perie (id:1246448)

Matthieu Charter (id:1225248)

Marie Rolindes (id:1221987)

Johann Lorillon Johann Lorillon (id:1197831)

Todd Hallowell Todd Hallowell (id:1285874)

恩尼克·福希尔 Yannick Fauchier (id:1180098)

Yann Cuinet Yann Cuinet (id:1074808)

马特·福斯特 Matt Foster (id:1242745)

Angus Bickerton Angus Bickerton (id:1276351)

特雷弗·杨 Trevor Young (id:1164006)

Kevin Ahern Kevin Ahern (id:1276871)

安吉拉·巴松 Angela Barson (id:1278010)

Steve Bowen Steve Bowen (id:1279085)

Dayne Cowan Dayne Cowan (id:1281396)

麦克斯·丹尼森 Max Dennison (id:1282254)

皮特·汉森 Pete Hanson (id:1102387)

Nick Drew Nick Drew (id:1282721)

保罗·J·富兰克林 Paul J. Franklin (id:1284101)

苏·惠特克 Su Whitaker (id:1276257)

Mathew Krentz Mathew Krentz (id:1183551)

丹尼塔·斯劳格赫特尔 Danita Slaughter (id:1239865)

克里斯托弗·斯维特 Christopher Sweet (id:1259038)

斯图尔特·布伦 Stuart Bullen (id:1232403)

艾玛·克利夫顿 Emma Clifton (id:1231204)

马丁·德雷克 Martyn Drake (id:1223541)

Adriano Cirulli Adriano Cirulli (id:1192784)

斯科特·泰勒 Scott Taylor (id:1188421)

马丁·R·戴维森 Martin R. Davison (id:1188384)

克里斯·威尔逊 Chris Wilson (id:1185167)

Barrie Hemsley Barrie Hemsley (id:1276250)

帕特里克·克兰斯 Patrick Clancey (id:1071903)

理查德·弗里德兰德尔 Richard Friedlander (id:1284215)

乔丹·本威克 Jordan Benwick (id:1302094)

Enrico Perei Enrico Perei (id:1312626)

Joe Pavlo Joe Pavlo (id:1294139)

Paul Riddle Paul Riddle (id:1295646)

埃里克·J·罗伯特森 Eric J. Robertson (id:1295789)

Rafal Kaniewski Rafal Kaniewski (id:1310313)

Victor Wade Victor Wade (id:1302191)

Les Quinn Les Quinn (id:1304003)

Nakia McGlynn Nakia McGlynn (id:1309032)

罗宾·霍兰德尔 Robin Hollander (id:1306882)

Pieter Warmington Pieter Warmington (id:1308986)

Anthony Stadler Anthony Stadler (id:1029673)

蒂姆·莱德伯里 Tim Ledbury (id:1307920)

Tim Jones Tim Jones (id:1053362)

Sean Farrow Sean Farrow (id:1052016)

Mark Breakspear Mark Breakspear (id:1051779)

Robin Huffer Robin Huffer (id:1287098)

Simon Hughes Simon Hughes (id:1287119)

Phil Johnson Phil Johnson (id:1287806)

保罗·坎皮恩 Paul Campion (id:1042566)

加里·布罗泽尼奇 Gary Brozenich (id:1308920)

◎简 介

卢浮宫博物馆馆长被人杀害在卢浮宫内,临死前他费力的留下骇人的符号,从而惊动了符号专家罗伯特·兰登(汤姆·汉克斯)。在破案过程中,兰登结识了死者的孙女,索菲(奥黛丽·塔图),俩人几次遇险,九死一生,逐渐产生爱慕之情。

随着案情的深入,他们渐渐发现这起谋杀案后隐藏着天大的秘密,甚至牵连到隐匿多年的神秘组织——峋山隐修会。兰登按图索骥,发现所有的解密的密码都藏在达芬奇的作品中,而最让人震惊的是,索菲的身世一时间随之复杂起来,她究竟是谁?峋山隐修会再现江湖想要达到什么目的?

◎获奖情况 (共2项)

第64届金球奖 (2007)

电影类 最佳原创配乐(提名)

└──汉斯·季默 (id:1054386)

第30届日本电影学院奖 (2007)

最佳外语片(提名)

  1. 合集文件列表:

  2. 1.Angels.And.Demons.2009.BluRay.1080p.DTS-HD.MA.5.1.x265.10bit-ALT.mkv 10.85GB

  3. 2.Inferno.2016.BluRay.1080p.DTS-HD.MA.5.1.x265.10bit-ALT.mkv 10.99GB

  4. 3.The.Da.Vinci.Code.2006.BluRay.1080p.TrueHD.5.1.x265.10bit-ALT.mkv 10.16GB


复制代码

  1. ##### MediaInfo ######

  2. General

  3. Unique ID : 64608246959567571478091219677920308389 (0x309B1882E67864417B44B0EC9D8F2CA5)

  4. Complete name : Angels.And.Demons.2009.BluRay.1080p.DTS-HD.MA.5.1.x265.10bit-ALT.mkv

  5. Format : Matroska

  6. Format version : Version 4

  7. File size : 10.9 GiB

  8. Duration : 2 h 26 min

  9. Overall bit rate mode : Variable

  10. Overall bit rate : 10.6 Mb/s

  11. Encoded date : UTC 2020-04-13 02:07:30

  12. Writing application : mkvmerge v45.0.0 ('Heaven in Pennies') 64-bit

  13. Writing library : libebml v1.3.10 + libmatroska v1.5.2


  14. Video

  15. ID : 1

  16. Format : HEVC

  17. Format/Info : High Efficiency Video Coding

  18. Format profile : Main [email protected]@High

  19. Codec ID : V_MPEGH/ISO/HEVC

  20. Duration : 2 h 26 min

  21. Bit rate : 6 786 kb/s

  22. Width : 1 920 pixels

  23. Height : 800 pixels

  24. Display aspect ratio : 2.40:1

  25. Frame rate mode : Constant

  26. Frame rate : 23.976 (24000/1001/53354) FPS

  27. Color space : YUV

  28. Chroma subsampling : 4:2:0

  29. Bit depth : 10 bits

  30. Bits/(Pixel*Frame) : 0.184

  31. Stream size : 6.93 GiB (64%)

  32. Title : HEVC, [email protected]@High, 24/1.001 fps @ 6785 kbps

  33. Writing library : x265 3.3+1-g396395b2b:[Windows][GCC 9.2.0][64 bit] 10bit

  34. Encoding settings : cpuid=533541111039 / frame-threads=5 / numa-pools=44,44 / wpp / pmode / pme / no-psnr / no-ssim / log-level=2 / input-csp=1 / input-res=1920x800 / interlace=0 / total-frames=210406 / level-idc=51 / high-tier=1 / uhd-bd=0 / ref=5 / no-allow-non-conformance / no-repeat-headers / annexb / no-aud / no-hrd / info / hash=0 / no-temporal-layers / open-gop / min-keyint=24 / keyint=240 / gop-lookahead=0 / bframes=6 / b-adapt=2 / b-pyramid / bframe-bias=0 / rc-lookahead=40 / lookahead-slices=0 / NTMzNTQ=uuDQuD2mJt9fsCf / scenecut=40 / hist-scenecut=0 / radl=0 / no-splice / no-intra-refresh / ctu=32 / min-cu-size=8 / no-rect / no-amp / max-tu-size=32 / tu-inter-depth=3 / tu-intra-depth=3 / limit-tu=4 / rdoq-level=2 / dynamic-rd=0.00 / no-ssim-rd / signhide / no-tskip / nr-intra=0 / nr-inter=0 / no-constrained-intra / no-strong-intra-smoothing / max-merge=4 / limit-refs=1 / limit-modes / me=3 / subme=4 / merange=25 / temporal-mvp / no-frame-dup / no-hme / weightp / weightb / no-analyze-src-pics / deblock=-3:-3 / no-sao / no-sao-non-deblock / rd=6 / selective-sao=0 / no-early-skip / rskip / no-fast-intra / no-tskip-fast / no-cu-lossless / b-intra / no-splitrd-skip / rdpenalty=0 / psy-rd=2.00 / psy-rdoq=1.00 / no-rd-refine / no-lossless / cbqpoffs=0 / crqpoffs=0 / rc=crf / crf=17.0 / qcomp=0.65 / qpstep=4 / stats-write=0 / stats-read=0 / vbv-maxrate=80000 / vbv-bufsize=80000 / vbv-init=0.9 / crf-max=0.0 / crf-min=0.0 / ipratio=1.40 / pbratio=1.30 / aq-mode=2 / aq-strength=0.85 / cutree / zone-count=0 / no-strict-cbr / qg-size=32 / no-rc-grain / qpmax=69 / qpmin=0 / no-const-vbv / sar=1 / overscan=0 / videoformat=5 / range=0 / colorprim=1 / transfer=1 / colormatrix=1 / chromaloc=0 / display-window=0 / cll=0,0 / min-luma=0 / max-luma=1023 / log2-max-poc-lsb=8 / vui-timing-info / vui-hrd-info / slices=1 / no-opt-qp-pps / no-opt-ref-list-length-pps / no-multi-pass-opt-rps / scenecut-bias=0.05 / hist-threshold=0.01 / no-opt-cu-delta-qp / no-aq-motion / no-hdr10 / no-hdr10-opt / no-dhdr10-opt / no-idr-recovery-sei / analysis-reuse-level=0 / analysis-save-reuse-level=0 / analysis-load-reuse-level=0 / scale-factor=0 / refine-intra=0 / refine-inter=0 / refine-mv=1 / refine-ctu-distortion=0 / no-limit-sao / ctu-info=0 / no-lowpass-dct / refine-analysis-type=0 / copy-pic=1 / max-ausize-factor=1.0 / no-dynamic-refine / no-single-sei / no-hevc-aq / no-svt / no-field / qp-adaptation-range=1.00 / no-scenecut-aware-qpconformance-window-offsets / right=0 / bottom=0 / NTMzNTQ=

  35. Language : English

  36. Default : Yes

  37. Forced : No

  38. Color range : Limited

  39. Color primaries : BT.709

  40. Transfer characteristics : BT.709

  41. Matrix coefficients : BT.709


  42. Audio

  43. ID : 2

  44. Format : DTS XLL

  45. Format/Info : Digital Theater Systems

  46. Commercial name : DTS-HD Master Audio

  47. Codec ID : A_DTS

  48. Duration : 2 h 26 min

  49. Bit rate mode : Variable

  50. Bit rate : 3 758 kb/s

  51. Channel(s) : 6 channels

  52. Channel layout : C L R Ls Rs LFE

  53. Sampling rate : 48.0 kHz

  54. Frame rate : 93.750 FPS (512 SPF)

  55. Bit depth : 24 bits

  56. Compression mode : Lossless

  57. Stream size : 3.84 GiB (35%)

  58. Title : English DTS-HD Master Audio 5.1 @ 3758 kbps

  59. Language : English

  60. Default : Yes

  61. Forced : No


  62. Text #1

  63. ID : 3

  64. Format : PGS

  65. Codec ID : S_HDMV/PGS

  66. Codec ID/Info : Picture based subtitle format used on BDs/HD-DVDs

  67. Duration : 2 h 15 min

  68. Bit rate : 29.9 kb/s

  69. Count of elements : 2766

  70. Stream size : 29.0 MiB (0%)

  71. Title : Eng/SUP

  72. Language : English

  73. Default : No

  74. Forced : No


  75. Text #2

  76. ID : 4

  77. Format : PGS

  78. Codec ID : S_HDMV/PGS

  79. Codec ID/Info : Picture based subtitle format used on BDs/HD-DVDs

  80. Duration : 2 h 16 min

  81. Bit rate : 24.9 kb/s

  82. Count of elements : 3184

  83. Stream size : 24.2 MiB (0%)

  84. Title : Chs/SUP 原盘简体

  85. Language : Chinese

  86. Default : Yes

  87. Forced : No


  88. Text #3

  89. ID : 5

  90. Format : PGS

  91. Codec ID : S_HDMV/PGS

  92. Codec ID/Info : Picture based subtitle format used on BDs/HD-DVDs

  93. Duration : 2 h 16 min

  94. Bit rate : 26.0 kb/s

  95. Count of elements : 3176

  96. Stream size : 25.3 MiB (0%)

  97. Title : Cht/SUP 原盘繁体

  98. Language : Chinese

  99. Default : No

  100. Forced : No


  101. Menu

  102. 00:00:00.000 : en:第 01 章

  103. 00:09:30.862 : en:第 02 章

  104. 00:19:08.355 : en:第 03 章

  105. 00:27:16.260 : en:第 04 章

  106. 00:34:22.811 : en:第 05 章

  107. 00:46:14.605 : en:第 06 章

  108. 00:55:16.855 : en:第 07 章

  109. 01:04:36.206 : en:第 08 章

  110. 01:14:51.904 : en:第 09 章

  111. 01:22:50.966 : en:第 10 章

  112. 01:32:53.693 : en:第 11 章

  113. 01:44:11.662 : en:第 12 章

  114. 01:55:16.826 : en:第 13 章

  115. 02:05:37.738 : en:第 14 章

  116. 02:10:38.580 : en:第 15 章

  117. 02:15:06.431 : en:第 16 章




复制代码



文件下载


除非特别注明,本文『达·芬奇密码[共3部合集][简繁英字幕].The.Da.Vinci.Code.Collection.2006-2016.BluRay.1080p.DTS-HD.MA.5.1.x265.10bit-AL』来源于互联网机器人自动抓取,非本站原创。 浮游电影网不对本文拥有版权,如有侵犯,请联系邮箱:fuyouu#yandex.com[#换成@]投诉。我们会在15个工作日内删除。 但烦请转载时请标明出处:“本文转载于『浮游电影网』,原文地址:https://www.fuyouu.com/21969.html

评论吧骚年!

发表你的见解   

昵称*

E-mail*(建议输入,以便收到博主回复的提示邮件)

验证码*

您可以使用eMule或eMule Mod(Windows)、aMule(Win、Linux、Mac)等软件下载eD2k链接。。
eMule收藏集(.emulecollection)文件是您选中的所有链接的列表文件。eMule可以直接下载它们。
按住SHIFT键选择可以选中多个选择框。
可用文件名和大小选择器来选择文件。
文件名选择器帮您根据文件名称或后缀来选择文件。不分大小写。
符号使用:
和:空格( )、+
不包含:-
或:|
转义:一对英文引号("");
匹配开头:^
匹配结尾:$
例如:
选中所有名称中包含有“eMule”或“0.49c”字眼,但不包含有“exe”字眼的:emule|0.49c -exe
选中所有名称的开头是“eMule”,结尾是“0.49c”的:^emule 0.49c$
选中所有名称中带有“eMule 0.49c”的(必须是“eMule 0.49c”,中间没有别的字符,不能是“eMule fake 0.49c”),需要转义:"emule 0.49c"
大小选择器帮您根据文件大小选择文件。