当前位置: 首页 >> 欧美电影 >> 创战纪[国英多音轨/中英特效字幕].Tron.Legacy.2010.UHD.2160p.x265.10bit.HDR.2Audio-MiniHD 25.87GB >> 正文

创战纪[国英多音轨/中英特效字幕].Tron.Legacy.2010.UHD.2160p.x265.10bit.HDR.2Audio-MiniHD 25.87GB

2022年05月08日 22:21:12     电影发布:来源于网络     电影分类:欧美电影     评论(0)    

◎译 名 创:战纪 / 创:光速战记(台) / 电子世界争霸战2 / Tron 2 / TR2N / 创战纪

◎片 名 TRON: Legacy

◎年 代 2010

◎产 地 美国

◎类 别 动作 / 科幻 / 冒险

◎语 言 英语

◎上映日期 2011-01-10(中国大陆) / 2010-12-17(美国)

◎IMDb链接 https://www.imdb.com/title/tt1104001/

◎豆瓣评分 6.7/10 (101407人评价)

◎豆瓣链接 https://movie.douban.com/subject/2997134/

◎片 长 125分钟

◎导 演 约瑟夫·科辛斯基 Joseph Kosinski (id:1313149)

◎编 剧 亚当·霍罗威茨 Adam Horowitz (id:1313151)

布赖恩·克卢格曼 Brian Klugman (id:1050108)

爱德华·基齐斯 Edward Kitsis (id:1313150)

李·施特恩塔尔 Lee Sternthal (id:1313152)

史蒂文·利斯伯吉尔 Steven Lisberger (id:1045242)

邦尼·麦克伯德 Bonnie MacBird (id:1313153)

◎演 员 加内特·赫德兰 Garrett Hedlund (id:1047958)

奥利维亚·王尔德 Olivia Wilde (id:1031795)

杰夫·布里吉斯 Jeff Bridges (id:1036313)

布鲁斯·巴克林纳 Bruce Boxleitner (id:1048147)

詹姆斯·弗莱恩 James Frain (id:1031840)

碧儿·加勒特 Beau Garrett (id:1013944)

麦克·辛 Michael Sheen (id:1004566)

阿尼斯·舍尔法 Anis Cheurfa (id:1313155)

赛琳达·斯万 Serinda Swan (id:1009347)

亚雅·达科斯塔 Yaya DaCosta (id:1214655)

伊丽莎白·马西斯 Elizabeth Mathis (id:1313156)

基里安·墨菲 Cillian Murphy (id:1047992)

杰弗里·诺灵 Jeffrey Nordling (id:1032136)

迈克尔·泰根 Michael Teigen (id:1327091)

史蒂文·利斯伯吉尔 Steven Lisberger (id:1045242)

帕特里克·萨邦圭 Patrick Sabongui (id:1014383)

Owen Best Owen Best (id:1226583)

艾米·伊斯特尔 Amy Esterle (id:1313154)

蠢朋克 Daft Punk (id:1313158)

康拉德·科茨 Conrad Coates (id:1313157)

史蒂文·利斯伯吉尔 Steven Lisberger (id:1045242)

约瑟夫·特雷帕尼斯 Joseph Trapanese (id:1378570)

克劳迪奥·米兰达 Claudio Miranda (id:1292192)

迈克尔·威尔金森 Michael Wilkinson (id:1300947)

奥·布里克 Ed Ulbrich (id:1410103)

◎简 介

20世纪80年代,电子软体天才凯文·弗林(杰夫·布里吉斯 Jeff Bridges 饰)创建了英康公司,将人类带入一个全新的时代。可是在辉煌的时代开创不久后,凯文神秘失踪。在此之后,凯文年幼的儿子萨姆(加内特·赫德兰 Garrett Hedlund 饰)继承了父亲的位置,实际工作则由其他工作人员主持。萨姆天资聪颖,充满冒险精神,经常给英康的高层们惹来麻烦。这一天,他得知一间荒废已久的工作室内竟传来父亲的讯息。萨姆前去探查,结果竟进入一个全数字化的虚拟世界。这个世界的掌控者克鲁(杰夫·布里吉斯 Jeff Bridges 饰)与父亲有着同样的容貌,却野心勃勃,邪恶无比。萨姆被迫卷入一场充满阴谋的电子争霸战中……

本片荣获2010年奥斯汀影评人协会最佳原创配乐奖。

◎获奖情况 (共3项)

第83届奥斯卡金像奖 (2011)

最佳音效剪辑(提名)

第20届MTV电影奖 (2011)

MTV电影奖 突破表演奖(提名)

└──奥利维亚·王尔德 (id:1031795)

第13届美国青少年选择奖 (2011)

Choice Movie Breakout: Female(提名)

└──奥利维亚·王尔德 (id:1031795)

  1. General

  2. Unique ID : 288889826837683185077924609254228963454 (0xD9562824EEDCDEF4EF6A29EA980F307E)

  3. Complete name : Tron.Legacy.2010.UHD.2160p.x265.10bit.HDR.2Audio-MiniHD.mkv

  4. Format : Matroska

  5. Format version : Version 4

  6. File size : 25.9 GiB

  7. Duration : 2 h 5 min

  8. Overall bit rate mode : Variable

  9. Overall bit rate : 29.6 Mb/s

  10. Encoded date : UTC 2021-03-10 16:05:23

  11. Writing application : mkvmerge v53.0.0 ('Fool's Gold') 64-bit

  12. Writing library : libebml v1.4.1 + libmatroska v1.6.2


  13. Video

  14. ID : 1

  15. Format : HEVC

  16. Format/Info : High Efficiency Video Coding

  17. Format profile : Main [email protected]@High

  18. HDR format : SMPTE ST 2086, HDR10 compatible

  19. Codec ID : V_MPEGH/ISO/HEVC

  20. Duration : 2 h 5 min

  21. Bit rate : 23.2 Mb/s

  22. Width : 3 840 pixels

  23. Height : 1 632 pixels

  24. Display aspect ratio : 2.35:1

  25. Frame rate mode : Constant

  26. Frame rate : 23.976 (24000/1001/53354) FPS

  27. Color space : YUV

  28. Chroma subsampling : 4:2:0

  29. Bit depth : 10 bits

  30. Bits/(Pixel*Frame) : 0.154

  31. Stream size : 20.3 GiB (78%)

  32. Writing library : x265 3.3+3-g8f8e332f1+29:[Windows][#Erg`Djh#][@Yuuki] made by @Dongfangbubai

  33. Encoding settings : rc=crf / crf=20.0000 / qcomp=0.70 / qpstep=4 / stats-write=0 / stats-read=0 / vbv-maxrate=160000 / vbv-bufsize=160000 / vbv-init=0.9 / crf-max=0.0 / crf-min=0.0 / no-lossless / no-cu-lossless / aq-mode=3 / aq-strength=0.80 / cbqpoffs=-3 / crqpoffs=-3 / ipratio=1.40 / pbratio=1.30 / psy-rd=2.00 / psy-rdoq=3.00 / deblock=-1:-1 / ref=5 / limit-refs=0 / no-limit-modes / bframes=8 / b-adapt=2 / bframe-bias=0 / b-pyramid / b-intra / weightp / weightb / min-keyint=23 / max-keyint=240 / rc-lookahead=60 / gop-lookahead=0 / NTMzNTQ=uuDQuD2mJt9fsCf / scenecut=40 / hist-scenecut=0 / radl=0 / max-cu-size=32 / min-cu-size=8 / me=3 / subme=4 / merange=25 / rdoq-level=2 / rd=4 / rdpenalty=1 / dynamic-rd=0.00 / no-rd-refine / ----- / no-cutree / no-sao / no-rect / no-amp / no-open-gop / wpp / pmode / pme / no-psnr / no-ssim / nr-intra=0 / nr-inter=0 / no-constrained-intra / no-strong-intra-smoothing / max-tu-size=32 / tu-inter-depth=2 / tu-intra-depth=2 / limit-tu=0 / qg-size=32 / qpmax=69 / qpmin=0 / ----- / cpuid=533541176575 / frame-threads=6 / numa-pools=54,- / log-level=2 / input-csp=1 / input-res=3840x1632 / interlace=0 / level-idc=0 / high-tier=1 / uhd-bd=0 / no-allow-non-conformance / no-repeat-headers / no-aud / hrd / info / hash=0 / no-temporal-layers / lookahead-slices=0 / no-splice / no-intra-refresh / no-ssim-rd / signhide / no-tskip / max-merge=3 / temporal-mvp / no-frame-dup / no-hme / no-analyze-src-pics / no-sao-non-deblock / selective-sao=0 / no-early-skip / no-rskip / no-fast-intra / no-tskip-fast / no-splitrd-skip / zone-count=0 / no-strict-cbr / no-rc-grain / no-const-vbv / sar=0 / overscan=0 / videoformat=5 / range=0 / colorprim=9 / transfer=16 / colormatrix=9 / chromaloc=0 / display-window=0 / master-display=G(13250,34500)B(7500,3000)R(34000,16000)WP(15635,16450)L(60000000,50) / cll=6000,640 / min-luma=0 / max-luma=1023 / log2-max-poc-lsb=8 / vui-timing-info / vui-hrd-info / slices=1 / no-opt-qp-pps / no-opt-ref-list-length-pps / no-multi-pass-opt-rps / scenecut-bias=0.05 / hist-threshold=0.01 / no-opt-cu-delta-qp / no-aq-motion / hdr10 / hdr10-opt / no-dhdr10-opt / no-idr-recovery-sei / analysis-reuse-level=0 / analysis-save-reuse-level=0 / analysis-load-reuse-level=0 / scale-factor=0 / refine-intra=0 / refine-inter=0 / refine-mv=1 / refine-ctu-distortion=0 / no-limit-sao / ctu-info=0 / no-lowpass-dct / refine-analysis-type=0 / copy-pic=1 / max-ausize-factor=1.0 / no-dynamic-refine / no-single-sei / no-hevc-aq / no-svt / no-field / qp-adaptation-range=1.00 / no-scenecut-aware-qpconformance-window-offsets / right=0 / bottom=0 / NTMzNTQ=

  34. Default : Yes

  35. Forced : No

  36. Color range : Limited

  37. Color primaries : BT.2020

  38. Transfer characteristics : PQ

  39. Matrix coefficients : BT.2020 non-constant

  40. Mastering display color primaries : Display P3

  41. Mastering display luminance : min: 0.0050 cd/m2, max: 6000 cd/m2

  42. Maximum Content Light Level : 6000 cd/m2

  43. Maximum Frame-Average Light Level : 640 cd/m2


  44. Audio #1

  45. ID : 2

  46. Format : DTS XLL

  47. Format/Info : Digital Theater Systems

  48. Commercial name : DTS-HD Master Audio

  49. Codec ID : A_DTS

  50. Duration : 2 h 5 min

  51. Bit rate mode : Variable

  52. Bit rate : 5 731 kb/s

  53. Channel(s) : 8 channels

  54. Channel layout : C L R LFE Lb Rb Lss Rss

  55. Sampling rate : 48.0 kHz

  56. Frame rate : 93.750 FPS (512 SPF)

  57. Bit depth : 24 bits

  58. Compression mode : Lossless

  59. Stream size : 5.01 GiB (19%)

  60. Title : 英语

  61. Language : English

  62. Default : Yes

  63. Forced : No


  64. Audio #2

  65. ID : 3

  66. Format : AC-3

  67. Format/Info : Audio Coding 3

  68. Commercial name : Dolby Digital

  69. Codec ID : A_AC3

  70. Duration : 2 h 5 min

  71. Bit rate mode : Constant

  72. Bit rate : 640 kb/s

  73. Channel(s) : 6 channels

  74. Channel layout : L R C LFE Ls Rs

  75. Sampling rate : 48.0 kHz

  76. Frame rate : 31.250 FPS (1536 SPF)

  77. Compression mode : Lossy

  78. Delay relative to video : 12 ms

  79. Stream size : 573 MiB (2%)

  80. Title : 八一国语

  81. Language : Chinese

  82. Service kind : Complete Main

  83. Default : No

  84. Forced : No


  85. Text #1

  86. ID : 4

  87. Format : PGS

  88. Muxing mode : zlib

  89. Codec ID : S_HDMV/PGS

  90. Codec ID/Info : Picture based subtitle format used on BDs/HD-DVDs

  91. Duration : 2 h 4 min

  92. Bit rate : 24.3 kb/s

  93. Count of elements : 2436

  94. Stream size : 21.7 MiB (0%)

  95. Title : 英文

  96. Language : English

  97. Default : Yes

  98. Forced : No


  99. Text #2

  100. ID : 5

  101. Format : PGS

  102. Muxing mode : zlib

  103. Codec ID : S_HDMV/PGS

  104. Codec ID/Info : Picture based subtitle format used on BDs/HD-DVDs

  105. Duration : 2 h 0 min

  106. Bit rate : 20.4 kb/s

  107. Count of elements : 2386

  108. Stream size : 17.5 MiB (0%)

  109. Title : 国配特效

  110. Language : Chinese

  111. Default : No

  112. Forced : No


  113. Text #3

  114. ID : 6

  115. Format : PGS

  116. Muxing mode : zlib

  117. Codec ID : S_HDMV/PGS

  118. Codec ID/Info : Picture based subtitle format used on BDs/HD-DVDs

  119. Duration : 2 h 0 min

  120. Bit rate : 33.2 kb/s

  121. Count of elements : 2386

  122. Stream size : 28.5 MiB (0%)

  123. Title : 国配双语特效

  124. Language : Chinese

  125. Default : No

  126. Forced : No


  127. Text #4

  128. ID : 7

  129. Format : PGS

  130. Muxing mode : zlib

  131. Codec ID : S_HDMV/PGS

  132. Codec ID/Info : Picture based subtitle format used on BDs/HD-DVDs

  133. Duration : 1 h 56 min

  134. Bit rate : 17.3 kb/s

  135. Count of elements : 1998

  136. Stream size : 14.4 MiB (0%)

  137. Title : 简体中文

  138. Language : Chinese

  139. Default : No

  140. Forced : No


  141. Text #5

  142. ID : 8

  143. Format : PGS

  144. Muxing mode : zlib

  145. Codec ID : S_HDMV/PGS

  146. Codec ID/Info : Picture based subtitle format used on BDs/HD-DVDs

  147. Duration : 1 h 56 min

  148. Bit rate : 29.0 kb/s

  149. Count of elements : 2000

  150. Stream size : 24.1 MiB (0%)

  151. Title : 简英双语

  152. Language : Chinese

  153. Default : No

  154. Forced : No


  155. Menu

  156. 00:00:00.000 : en:第 01 章

  157. 00:04:07.163 : en:第 02 章

  158. 00:14:44.133 : en:第 03 章

  159. 00:23:15.602 : en:第 04 章

  160. 00:26:52.694 : en:第 05 章

  161. 00:36:12.210 : en:第 06 章

  162. 00:38:35.980 : en:第 07 章

  163. 00:46:52.726 : en:第 08 章

  164. 00:53:03.763 : en:第 09 章

  165. 01:04:54.181 : en:第 10 章

  166. 01:13:47.421 : en:第 11 章

  167. 01:19:00.944 : en:第 12 章

  168. 01:22:40.455 : en:第 13 章

  169. 01:25:50.895 : en:第 14 章

  170. 01:28:11.828 : en:第 15 章

  171. 01:31:42.412 : en:第 16 章

  172. 01:43:13.061 : en:第 17 章

  173. 01:48:18.033 : en:第 18 章

  174. 01:54:48.381 : en:第 19 章

  175. 01:58:03.659 : en:第 20 章




复制代码



文件下载


除非特别注明,本文『创战纪[国英多音轨/中英特效字幕].Tron.Legacy.2010.UHD.2160p.x265.10bit.HDR.2Audio-MiniHD 25.87GB』来源于互联网机器人自动抓取,非本站原创。 浮游电影网不对本文拥有版权,如有侵犯,请联系邮箱:fuyouu#yandex.com[#换成@]投诉。我们会在15个工作日内删除。 但烦请转载时请标明出处:“本文转载于『浮游电影网』,原文地址:https://www.fuyouu.com/21964.html

评论吧骚年!

发表你的见解   

昵称*

E-mail*(建议输入,以便收到博主回复的提示邮件)

验证码*

您可以使用eMule或eMule Mod(Windows)、aMule(Win、Linux、Mac)等软件下载eD2k链接。。
eMule收藏集(.emulecollection)文件是您选中的所有链接的列表文件。eMule可以直接下载它们。
按住SHIFT键选择可以选中多个选择框。
可用文件名和大小选择器来选择文件。
文件名选择器帮您根据文件名称或后缀来选择文件。不分大小写。
符号使用:
和:空格( )、+
不包含:-
或:|
转义:一对英文引号("");
匹配开头:^
匹配结尾:$
例如:
选中所有名称中包含有“eMule”或“0.49c”字眼,但不包含有“exe”字眼的:emule|0.49c -exe
选中所有名称的开头是“eMule”,结尾是“0.49c”的:^emule 0.49c$
选中所有名称中带有“eMule 0.49c”的(必须是“eMule 0.49c”,中间没有别的字符,不能是“eMule fake 0.49c”),需要转义:"emule 0.49c"
大小选择器帮您根据文件大小选择文件。