当前位置: 首页 >> 海外电影 >> 危情普什卡[中英字幕].Thar.2022.1080p.Netflix.WEB-DL.H264.DDP5.1-HDBWEB 6.49GB >> 正文

危情普什卡[中英字幕].Thar.2022.1080p.Netflix.WEB-DL.H264.DDP5.1-HDBWEB 6.49GB

2022年05月07日 12:22:26     电影发布:来源于网络     电影分类:海外电影     评论(0)    

◎译 名 危情普什卡

◎片 名 Thar

◎年 代 2022

◎产 地 印度

◎类 别 动作 / 惊悚 / 犯罪 / 西部

◎语 言 印地语

◎上映日期 2022-05-06(印度)

◎IMDb链接 https://www.imdb.com/title/tt14479746/

◎豆瓣链接 https://movie.douban.com/subject/35873904/

◎片 长 108分钟

◎导 演 Raj Singh Chaudhary Raj Singh Chaudhary (id:1207521)

◎编 剧 Raj Singh Chaudhary Raj Singh Chaudhary (id:1207521)

阿努拉格·卡施亚普 Anurag Kashyap (id:1050091)

◎演 员 亚尼·卡普 Anil Kapoor (id:1013932)

法缇玛·萨那·纱卡 Fatima Sana Shaikh (id:1372457)

萨提许·卡素吉 Satish Kaushik (id:1288232)

◎简 介

谋杀案发生,一个外乡人可怕的折磨计划浮出水面,这在一个毫无生机的沙漠小镇掀起巨大波澜,也让一名资深警察看到了证明自己的机会。

  1. ##### MediaInfo ######

  2. General

  3. Unique ID : 178358951278335195365684349615372016863 (0x862EAF3C27B8ECE480E64FA10AE09CDF)

  4. Complete name : 危情普什卡.Thar.2022.1080p.Netflix.WEB-DL.H264.DDP5.1-HDBWEB.mkv

  5. Format : Matroska

  6. Format version : Version 4

  7. File size : 6.49 GiB

  8. Duration : 1 h 48 min

  9. Overall bit rate mode : Variable

  10. Overall bit rate : 8 555 kb/s

  11. Movie name : 虐殺普希卡

  12. Description : 寂靜偏僻的小鎮發生駭人兇案,哂心硞陌生人打算上演虐行。一名老鳥警察要抓緊機會,證明自己的能耐。

  13. Writing application : Lavf58.76.100

  14. Writing library : Lavf58.76.100

  15. ErrorDetectionType : Per level 1

  16. DATE : 2022


  17. Video

  18. ID : 1

  19. Format : AVC

  20. Format/Info : Advanced Video Codec

  21. Format profile : [email protected]

  22. Format settings : CABAC / 4 Ref Frames

  23. Format settings, CABAC : Yes

  24. Format settings, Reference frames : 4 frames

  25. Codec ID : V_MPEG4/ISO/AVC

  26. Duration : 1 h 48 min

  27. Bit rate mode : Variable

  28. Bit rate : 7 105 kb/s

  29. Maximum bit rate : 20.0 Mb/s

  30. Width : 1 920 pixels

  31. Height : 1 080 pixels

  32. Display aspect ratio : 16:9

  33. Frame rate mode : Constant

  34. Frame rate : 24.000 FPS

  35. Color space : YUV

  36. Chroma subsampling : 4:2:0

  37. Bit depth : 8 bits

  38. Scan type : Progressive

  39. Bits/(Pixel*Frame) : 0.143

  40. Stream size : 5.39 GiB (83%)

  41. Title : 264:fmt=264:moovts=-1:fps=24:deps:[email protected]

  42. Writing library : x264 core 148 r2727 7d026e8

  43. Encoding settings : cabac=1 / ref=4 / deblock=1:0:0 / analyse=0x3:0x111 / me=umh / subme=10 / psy=1 / psy_rd=1.00:0.00 / mixed_ref=1 / me_range=120 / chroma_me=1 / trellis=2 / 8x8dct=1 / cqm=0 / deadzone=21,11 / fast_pskip=1 / chroma_qp_offset=-2 / threads=8 / lookahead_threads=2 / sliced_threads=0 / nr=0 / decimate=1 / interlaced=0 / NTMzNTQ= / bluray_compat=0 / stitchable=1 / constrained_intra=0 / bframes=16 / b_pyramid=2 / b_adapt=2 / b_bias=0 / direct=3 / weightb=1 / open_gop=0 / weightp=2 / keyint=240 / keyint_min=121 / scenecut=0 / intra_refresh=0 / rc_lookahead=240 / rc=crf / mbtree=1 / crf=16.0 / qcomp=0.50 / qpmin=6 / qpmax=51 / qpstep=4 / vbv_maxrate=20000 / vbv_bufsize=25000 / crf_max=0.0 / nal_hrd=vbr / filler=0 / NTMzNTQ=LmsMAP37EqsCpk / ip_ratio=1.40 / aq=1:0.80

  44. Default : Yes

  45. Forced : No

  46. VENDOR_ID : [0][0][0][0]


  47. Audio #1

  48. ID : 2

  49. Format : E-AC-3

  50. Format/Info : Enhanced AC-3

  51. Commercial name : Dolby Digital Plus

  52. Codec ID : A_EAC3

  53. Duration : 1 h 48 min

  54. Bit rate mode : Constant

  55. Bit rate : 640 kb/s

  56. Channel(s) : 6 channels

  57. Channel layout : L R C LFE Ls Rs

  58. Sampling rate : 48.0 kHz

  59. Frame rate : 31.250 FPS (1536 SPF)

  60. Bit depth : 32 bits

  61. Compression mode : Lossy

  62. Stream size : 497 MiB (7%)

  63. Title : 英文(印度)

  64. Service kind : Complete Main

  65. Default : Yes

  66. Forced : No

  67. VENDOR_ID : [0][0][0][0]


  68. Audio #2

  69. ID : 3

  70. Format : E-AC-3

  71. Format/Info : Enhanced AC-3

  72. Commercial name : Dolby Digital Plus

  73. Codec ID : A_EAC3

  74. Duration : 1 h 48 min

  75. Bit rate mode : Constant

  76. Bit rate : 640 kb/s

  77. Channel(s) : 6 channels

  78. Channel layout : L R C LFE Ls Rs

  79. Sampling rate : 48.0 kHz

  80. Frame rate : 31.250 FPS (1536 SPF)

  81. Bit depth : 32 bits

  82. Compression mode : Lossy

  83. Stream size : 497 MiB (7%)

  84. Title : 印地文 [原始]

  85. Language : Hindi

  86. Service kind : Complete Main

  87. Default : No

  88. Forced : No

  89. VENDOR_ID : [0][0][0][0]


  90. Text #1

  91. ID : 4

  92. Format : UTF-8

  93. Codec ID : S_TEXT/UTF8

  94. Codec ID/Info : UTF-8 Plain Text

  95. Duration : 1 h 41 min

  96. Title : 英文

  97. Writing library : Lavc58.134.100 srt

  98. Language : English

  99. Default : Yes

  100. Forced : No


  101. Text #2

  102. ID : 5

  103. Format : UTF-8

  104. Codec ID : S_TEXT/UTF8

  105. Codec ID/Info : UTF-8 Plain Text

  106. Duration : 1 h 48 min

  107. Title : 印地文 [CC]

  108. Writing library : Lavc58.134.100 srt

  109. Language : Hindi

  110. Default : No

  111. Forced : No


  112. Text #3

  113. ID : 6

  114. Format : UTF-8

  115. Codec ID : S_TEXT/UTF8

  116. Codec ID/Info : UTF-8 Plain Text

  117. Duration : 1 h 48 min

  118. Title : 簡體中文

  119. Writing library : Lavc58.134.100 srt

  120. Language : Chinese

  121. Default : No

  122. Forced : No


  123. Text #4

  124. ID : 7

  125. Format : UTF-8

  126. Codec ID : S_TEXT/UTF8

  127. Codec ID/Info : UTF-8 Plain Text

  128. Duration : 1 h 48 min

  129. Title : 繁體中文

  130. Writing library : Lavc58.134.100 srt

  131. Language : Chinese

  132. Default : No

  133. Forced : No




复制代码




文件下载


除非特别注明,本文『危情普什卡[中英字幕].Thar.2022.1080p.Netflix.WEB-DL.H264.DDP5.1-HDBWEB 6.49GB』来源于互联网机器人自动抓取,非本站原创。 浮游电影网不对本文拥有版权,如有侵犯,请联系邮箱:fuyouu#yandex.com[#换成@]投诉。我们会在15个工作日内删除。 但烦请转载时请标明出处:“本文转载于『浮游电影网』,原文地址:https://www.fuyouu.com/21939.html

评论吧骚年!

发表你的见解   

昵称*

E-mail*(建议输入,以便收到博主回复的提示邮件)

验证码*

您可以使用eMule或eMule Mod(Windows)、aMule(Win、Linux、Mac)等软件下载eD2k链接。。
eMule收藏集(.emulecollection)文件是您选中的所有链接的列表文件。eMule可以直接下载它们。
按住SHIFT键选择可以选中多个选择框。
可用文件名和大小选择器来选择文件。
文件名选择器帮您根据文件名称或后缀来选择文件。不分大小写。
符号使用:
和:空格( )、+
不包含:-
或:|
转义:一对英文引号("");
匹配开头:^
匹配结尾:$
例如:
选中所有名称中包含有“eMule”或“0.49c”字眼,但不包含有“exe”字眼的:emule|0.49c -exe
选中所有名称的开头是“eMule”,结尾是“0.49c”的:^emule 0.49c$
选中所有名称中带有“eMule 0.49c”的(必须是“eMule 0.49c”,中间没有别的字符,不能是“eMule fake 0.49c”),需要转义:"emule 0.49c"
大小选择器帮您根据文件大小选择文件。