当前位置: 首页 >> 国产电影 >> 关机[国语配音/中文字幕].Shut.Down.2020.2160p.WEB-DL.H265.DDP5.1.2Audio-CTRLWEB 2.36GB >> 正文

关机[国语配音/中文字幕].Shut.Down.2020.2160p.WEB-DL.H265.DDP5.1.2Audio-CTRLWEB 2.36GB

2022年05月07日 12:20:07     电影发布:来源于网络     电影分类:国产电影     评论(0)    

◎译 名 关机 / Shut Down

◎年 代 2020

◎产 地 中国大陆

◎类 别 爱情

◎语 言 汉语普通话

◎上映日期 2020-09-12(中国大陆)

◎IMDb链接 https://www.imdb.com/title//

◎豆瓣链接 https://movie.douban.com/subject/34453154/

◎片 长 89分钟

◎演 员 何杜娟 Dujuan He (id:1315848)

刘岳 Yue Liu (id:1315889)

张颂文 Songwen Zhang (id:1314329)

◎简 介

有些人的生活,就像手机死机,需要重启;有些人的爱情,就像手机待机,一直在线。安然偶然的一次被安排的临时出差任务,让匆忙上路的她手机没电关机了。关机失联后,她的多年好友大伟锲而不舍的寻找,加上一个满嘴忽悠的弟弟安乐,引发了一连串因她关机啼笑皆非的事件……

牵出了安然男友吴子杰劈腿女闺蜜,大伟轻信恶作剧的“绑匪”电话而四处筹钱,安妈被惊吓入院,安乐怒火攻心误伤“小三”,大伟与子杰大打出手,以及因大伟上公司闹而导致的安然工作被停职,关机24小时后,安然的人生一下从winner变成loser……

  1. ##### MediaInfo ######

  2. General

  3. Unique ID : 122603088717752018288034315565334893157 (0x5C3C7EF8C7CB4F930993D72BD9CD9265)

  4. Complete name : Shut.Down.2020.2160p.WEB-DL.H265.DDP5.1.2Audio-CTRLWEB.mkv

  5. Format : Matroska

  6. Format version : Version 4

  7. File size : 2.36 GiB

  8. Duration : 1 h 29 min

  9. Overall bit rate : 3 795 kb/s

  10. Writing application : Lavf58.76.100

  11. Writing library : Lavf58.76.100

  12. ErrorDetectionType : Per level 1


  13. Video

  14. ID : 1

  15. Format : HEVC

  16. Format/Info : High Efficiency Video Coding

  17. Format profile : [email protected]@Main

  18. Codec ID : V_MPEGH/ISO/HEVC

  19. Duration : 1 h 28 min

  20. Width : 3 840 pixels

  21. Height : 1 632 pixels

  22. Display aspect ratio : 2.35:1

  23. Frame rate mode : Constant

  24. Frame rate : 24.000 FPS

  25. Color space : YUV

  26. Chroma subsampling : 4:2:0

  27. Bit depth : 8 bits

  28. Default : Yes

  29. Forced : No

  30. Color range : Limited

  31. VENDOR_ID : [0][0][0][0]


  32. Audio #1

  33. ID : 2

  34. Format : E-AC-3

  35. Format/Info : Enhanced AC-3

  36. Commercial name : Dolby Digital Plus

  37. Codec ID : A_EAC3

  38. Duration : 1 h 29 min

  39. Bit rate mode : Constant

  40. Bit rate : 256 kb/s

  41. Channel(s) : 6 channels

  42. Channel layout : L R C LFE Ls Rs

  43. Sampling rate : 48.0 kHz

  44. Frame rate : 31.250 FPS (1536 SPF)

  45. Bit depth : 32 bits

  46. Compression mode : Lossy

  47. Stream size : 163 MiB (7%)

  48. Title : Mandarin DDP5.1

  49. Language : Chinese

  50. Service kind : Complete Main

  51. Default : Yes

  52. Forced : No


  53. Audio #2

  54. ID : 3

  55. Format : E-AC-3

  56. Format/Info : Enhanced AC-3

  57. Commercial name : Dolby Digital Plus

  58. Codec ID : A_EAC3

  59. Duration : 1 h 29 min

  60. Bit rate mode : Constant

  61. Bit rate : 256 kb/s

  62. Channel(s) : 6 channels

  63. Channel layout : L R C LFE Ls Rs

  64. Sampling rate : 48.0 kHz

  65. Frame rate : 31.250 FPS (1536 SPF)

  66. Bit depth : 32 bits

  67. Compression mode : Lossy

  68. Stream size : 163 MiB (7%)

  69. Title : Cantonese DDP5.1

  70. Language : Chinese

  71. Service kind : Complete Main

  72. Default : No

  73. Forced : No


  74. Audio #3

  75. ID : 4

  76. Format : AAC LC

  77. Format/Info : Advanced Audio Codec Low Complexity

  78. Codec ID : A_AAC-2

  79. Duration : 1 h 29 min

  80. Channel(s) : 2 channels

  81. Channel layout : L R

  82. Sampling rate : 44.1 kHz

  83. Frame rate : 43.066 FPS (1024 SPF)

  84. Compression mode : Lossy

  85. Title : Mandarin AAC2.0

  86. Language : Chinese

  87. Default : No

  88. Forced : No

  89. VENDOR_ID : [0][0][0][0]




复制代码



文件下载


除非特别注明,本文『关机[国语配音/中文字幕].Shut.Down.2020.2160p.WEB-DL.H265.DDP5.1.2Audio-CTRLWEB 2.36GB』来源于互联网机器人自动抓取,非本站原创。 浮游电影网不对本文拥有版权,如有侵犯,请联系邮箱:fuyouu#yandex.com[#换成@]投诉。我们会在15个工作日内删除。 但烦请转载时请标明出处:“本文转载于『浮游电影网』,原文地址:https://www.fuyouu.com/21937.html

评论吧骚年!

发表你的见解   

昵称*

E-mail*(建议输入,以便收到博主回复的提示邮件)

验证码*

您可以使用eMule或eMule Mod(Windows)、aMule(Win、Linux、Mac)等软件下载eD2k链接。。
eMule收藏集(.emulecollection)文件是您选中的所有链接的列表文件。eMule可以直接下载它们。
按住SHIFT键选择可以选中多个选择框。
可用文件名和大小选择器来选择文件。
文件名选择器帮您根据文件名称或后缀来选择文件。不分大小写。
符号使用:
和:空格( )、+
不包含:-
或:|
转义:一对英文引号("");
匹配开头:^
匹配结尾:$
例如:
选中所有名称中包含有“eMule”或“0.49c”字眼,但不包含有“exe”字眼的:emule|0.49c -exe
选中所有名称的开头是“eMule”,结尾是“0.49c”的:^emule 0.49c$
选中所有名称中带有“eMule 0.49c”的(必须是“eMule 0.49c”,中间没有别的字符,不能是“eMule fake 0.49c”),需要转义:"emule 0.49c"
大小选择器帮您根据文件大小选择文件。