当前位置: 首页 >> 港台电影 >> 台风[国语音轨/简体字幕].Typhoon.1962.BluRay.1080p.DTS-HD.MA.1.0.x265.10bit-ALT 9.69GB >> 正文

台风[国语音轨/简体字幕].Typhoon.1962.BluRay.1080p.DTS-HD.MA.1.0.x265.10bit-ALT 9.69GB

2022年05月07日 12:17:20     电影发布:来源于网络     电影分类:港台电影     评论(0)    

◎译 名 台风 / Typhoon

◎片 名 颱風

◎年 代 1962

◎产 地 中国台湾

◎类 别 剧情

◎语 言 汉语普通话

◎上映日期 1962

◎IMDb链接 https://www.imdb.com/title/tt3739576/

◎豆瓣评分 7.4/10 (101人评价)

◎豆瓣链接 https://movie.douban.com/subject/25817420/

◎片 长 111分钟

◎导 演 潘垒 Lei Pan (id:1338928)

◎编 剧 潘垒 Lei Pan (id:1338928)

◎演 员 唐宝云 Baoyun Tang (id:1314808)

唐菁 Ching Tang (id:1321590)

穆虹 Hong Mu (id:1040028)

雷鸣 Ming Lei (id:1289745)

罗宛琳 Wan-lin Lo (id:1378349)

◎简 介

阿里山測候站職員何志平(金石飾)平日專心於自己的研究工作,因而忽略了他的妻子君麗(穆虹飾),孤獨的君麗精神十分不范ǎ洺R蕾嚲凭珌砺樽碜约骸V酒降牡艿苤拘郏W威飾)不學無術,安排流氓高大豪(唐菁飾)前往測候站躲避警方的追查。

逃亡途中,大豪遇到離家出走的小姍(羅宛琳飾 ),二人偽裝成父女前往阿里山。大豪在山上結識了少女阿紅(唐寶雲飾),阿紅的天真讓大豪感到愧疚,欲帶小姍離開。此時君麗卻意亂情迷,竟在颱風夜裡衝入大豪房內,欲與其一起逃離。

無奈風雨過大,又逢警方把守,三人只好折返測候站,小姍也因此感染肺炎。在良心的譴責與志平的勸服後,大豪終於決定將小姍送醫,並前往警局自首,而志平與君麗也重修舊好。

1962年第9屆亞洲影展最佳女配角獎─唐寶雲

1962年第9屆亞洲影展最佳女童星特別獎─羅宛琳

◎获奖情况 (共1项)

第1届台北金马影展 (1962)

金马奖 最佳女配角

└──唐宝云 (id:1314808)

  1. ##### MediaInfo ######

  2. General

  3. Unique ID : 267593745305683904114486404669780746611 (0xC950AE4274027C543F2FBA4E39E76173)

  4. Complete name : Typhoon.1962.BluRay.1080p.DTS-HD.MA.1.0.x265.10bit-ALT.mkv

  5. Format : Matroska

  6. Format version : Version 4

  7. File size : 9.69 GiB

  8. Duration : 1 h 52 min

  9. Overall bit rate mode : Variable

  10. Overall bit rate : 12.3 Mb/s

  11. Encoded date : UTC 2022-05-07 01:15:21

  12. Writing application : mkvmerge v49.0.0 ('Sick Of Losing Soulmates') 64-bit

  13. Writing library : libebml v1.4.0 + libmatroska v1.6.1


  14. Video

  15. ID : 1

  16. Format : HEVC

  17. Format/Info : High Efficiency Video Coding

  18. Format profile : Main [email protected]@High

  19. Codec ID : V_MPEGH/ISO/HEVC

  20. Duration : 1 h 52 min

  21. Bit rate : 11.3 Mb/s

  22. Width : 1 920 pixels

  23. Height : 804 pixels

  24. Display aspect ratio : 2.40:1

  25. Frame rate mode : Constant

  26. Frame rate : 23.976 (24000/1001/53354) FPS

  27. Color space : YUV

  28. Chroma subsampling : 4:2:0

  29. Bit depth : 10 bits

  30. Bits/(Pixel*Frame) : 0.305

  31. Stream size : 8.87 GiB (92%)

  32. Title : HEVC, [email protected]@High, 24/1.001 fps @ 11269 kbps

  33. Writing library : x265 3.5+36-1f2c8da77:[Windows][GCC 11.2.0][64 bit] 10bit

  34. Encoding settings : cpuid=533541049071 / frame-threads=3 / numa-pools=8 / wpp / no-pmode / no-pme / no-psnr / no-ssim / log-level=2 / input-csp=1 / input-res=1920x804 / interlace=0 / total-frames=162083 / level-idc=51 / high-tier=1 / uhd-bd=0 / ref=5 / no-allow-non-conformance / no-repeat-headers / annexb / no-aud / no-eob / no-eos / no-hrd / info / hash=0 / no-temporal-layers / open-gop / min-keyint=24 / keyint=240 / gop-lookahead=0 / bframes=6 / b-adapt=2 / b-pyramid / bframe-bias=0 / rc-lookahead=40 / lookahead-slices=0 / NTMzNTQ=uuDQuD2mJt9fsCf / scenecut=40 / no-hist-scenecut / radl=0 / no-splice / no-intra-refresh / ctu=32 / min-cu-size=8 / no-rect / no-amp / max-tu-size=32 / tu-inter-depth=3 / tu-intra-depth=3 / limit-tu=4 / rdoq-level=2 / dynamic-rd=0.00 / no-ssim-rd / signhide / no-tskip / nr-intra=0 / nr-inter=0 / no-constrained-intra / no-strong-intra-smoothing / max-merge=4 / limit-refs=1 / limit-modes / me=3 / subme=4 / merange=25 / temporal-mvp / no-frame-dup / no-hme / weightp / weightb / no-analyze-src-pics / deblock=-3:-3 / no-sao / no-sao-non-deblock / rd=6 / selective-sao=0 / no-early-skip / rskip / no-fast-intra / no-tskip-fast / no-cu-lossless / b-intra / no-splitrd-skip / rdpenalty=0 / psy-rd=2.00 / psy-rdoq=1.00 / no-rd-refine / no-lossless / cbqpoffs=-2 / crqpoffs=-2 / rc=crf / crf=19.5 / qcomp=0.65 / qpstep=4 / stats-write=0 / stats-read=0 / vbv-maxrate=80000 / vbv-bufsize=80000 / vbv-init=0.9 / min-vbv-fullness=50.0 / max-vbv-fullness=80.0 / crf-max=0.0 / crf-min=0.0 / ipratio=1.40 / pbratio=1.30 / aq-mode=2 / aq-strength=0.85 / cutree / zone-count=0 / no-strict-cbr / qg-size=32 / no-rc-grain / qpmax=69 / qpmin=0 / no-const-vbv / sar=1 / overscan=0 / videoformat=5 / range=0 / colorprim=1 / transfer=1 / colormatrix=1 / chromaloc=0 / display-window=0 / cll=0,0 / min-luma=0 / max-luma=1023 / log2-max-poc-lsb=8 / vui-timing-info / vui-hrd-info / slices=1 / no-opt-qp-pps / no-opt-ref-list-length-pps / no-multi-pass-opt-rps / scenecut-bias=0.05 / hist-threshold=0.03 / no-opt-cu-delta-qp / no-aq-motion / no-hdr10 / no-hdr10-opt / no-dhdr10-opt / no-idr-recovery-sei / analysis-reuse-level=0 / analysis-save-reuse-level=0 / analysis-load-reuse-level=0 / scale-factor=0 / refine-intra=0 / refine-inter=0 / refine-mv=1 / refine-ctu-distortion=0 / no-limit-sao / ctu-info=0 / no-lowpass-dct / refine-analysis-type=0 / copy-pic=1 / max-ausize-factor=1.0 / no-dynamic-refine / no-single-sei / no-hevc-aq / no-svt / no-field / qp-adaptation-range=1.00 / scenecut-aware-qp=0conformance-window-offsets / right=0 / bottom=0 / NTMzNTQ= / decoder-max-rate=0 / no-vbv-live-multi-pass

  35. Language : English

  36. Default : Yes

  37. Forced : No

  38. Color range : Limited

  39. Color primaries : BT.709

  40. Transfer characteristics : BT.709

  41. Matrix coefficients : BT.709


  42. Audio

  43. ID : 2

  44. Format : DTS XLL

  45. Format/Info : Digital Theater Systems

  46. Commercial name : DTS-HD Master Audio

  47. Codec ID : A_DTS

  48. Duration : 1 h 52 min

  49. Bit rate mode : Variable

  50. Bit rate : 1 022 kb/s

  51. Channel(s) : 1 channel

  52. Channel layout : C

  53. Sampling rate : 48.0 kHz

  54. Frame rate : 93.750 FPS (512 SPF)

  55. Bit depth : 24 bits

  56. Compression mode : Lossless

  57. Stream size : 823 MiB (8%)

  58. Title : Mandarin DTS-HD Master Audio 2.0 @ 1022 kbps

  59. Language : Chinese

  60. Default : Yes

  61. Forced : No


  62. Text

  63. ID : 3

  64. Format : PGS

  65. Codec ID : S_HDMV/PGS

  66. Codec ID/Info : Picture based subtitle format used on BDs/HD-DVDs

  67. Duration : 1 h 47 min

  68. Bit rate : 17.7 kb/s

  69. Count of elements : 2192

  70. Stream size : 13.6 MiB (0%)

  71. Title : Chs/SUP 简体

  72. Language : Chinese

  73. Default : Yes

  74. Forced : No




复制代码



文件下载


除非特别注明,本文『台风[国语音轨/简体字幕].Typhoon.1962.BluRay.1080p.DTS-HD.MA.1.0.x265.10bit-ALT 9.69GB』来源于互联网机器人自动抓取,非本站原创。 浮游电影网不对本文拥有版权,如有侵犯,请联系邮箱:fuyouu#yandex.com[#换成@]投诉。我们会在15个工作日内删除。 但烦请转载时请标明出处:“本文转载于『浮游电影网』,原文地址:https://www.fuyouu.com/21934.html

评论吧骚年!

发表你的见解   

昵称*

E-mail*(建议输入,以便收到博主回复的提示邮件)

验证码*

您可以使用eMule或eMule Mod(Windows)、aMule(Win、Linux、Mac)等软件下载eD2k链接。。
eMule收藏集(.emulecollection)文件是您选中的所有链接的列表文件。eMule可以直接下载它们。
按住SHIFT键选择可以选中多个选择框。
可用文件名和大小选择器来选择文件。
文件名选择器帮您根据文件名称或后缀来选择文件。不分大小写。
符号使用:
和:空格( )、+
不包含:-
或:|
转义:一对英文引号("");
匹配开头:^
匹配结尾:$
例如:
选中所有名称中包含有“eMule”或“0.49c”字眼,但不包含有“exe”字眼的:emule|0.49c -exe
选中所有名称的开头是“eMule”,结尾是“0.49c”的:^emule 0.49c$
选中所有名称中带有“eMule 0.49c”的(必须是“eMule 0.49c”,中间没有别的字符,不能是“eMule fake 0.49c”),需要转义:"emule 0.49c"
大小选择器帮您根据文件大小选择文件。