当前位置: 首页 >> 欧美电影 >> 五路追杀令[国英多音轨/简繁字幕].Smokin'.Aces.2006.2160p.HDR.UHD.BluRay.DTS-X.7.1.2Audio.x265-10bit-ENTHD 16.31GB >> 正文

五路追杀令[国英多音轨/简繁字幕].Smokin'.Aces.2006.2160p.HDR.UHD.BluRay.DTS-X.7.1.2Audio.x265-10bit-ENTHD 16.31GB

2022年05月07日 12:16:13     电影发布:来源于网络     电影分类:欧美电影     评论(0)    

◎译 名 五路追杀令 / 皇牌追杀令(港) / 呛烟高手 / 赌国追杀令 / 群雄逐鹿

◎片 名 Smokin' Aces

◎年 代 2006

◎产 地 美国 / 英国 / 法国

◎类 别 剧情 / 动作 / 惊悚 / 犯罪

◎语 言 英语

◎上映日期 2006-12-09(奥斯汀BNAT) / 2007-01-12(英国)

◎IMDb链接 https://www.imdb.com/title/tt0475394/

◎豆瓣评分 6.9/10 (14634人评价)

◎豆瓣链接 https://movie.douban.com/subject/1865012/

◎片 长 109 分钟

◎导 演 乔·卡纳汉 Joe Carnahan (id:1044728)

◎编 剧 乔·卡纳汉 Joe Carnahan (id:1044728)

◎演 员 瑞安·雷诺兹 Ryan Reynolds (id:1053623)

雷·利奥塔 Ray Liotta (id:1036326)

本·阿弗莱克 Ben Affleck (id:1054417)

彼得·博格 Peter Berg (id:1031938)

安迪·加西亚 Andy Garcia (id:1002695)

塔拉吉·P·汉森 Taraji P. Henson (id:1049487)

克里斯·派恩 Chris Pine (id:1053621)

杰森·贝特曼 Jason Bateman (id:1013760)

马修·福克斯 Matthew Fox (id:1009255)

凯文·杜兰 Kevin Durand (id:1013790)

乔尔·埃哲顿 Joel Edgerton (id:1010631)

艾丽西亚·凯斯 Alicia Keys (id:1004624)

汤米·弗拉纳根 Tommy Flanagan (id:1081424)

布莱恩·布鲁姆 Brian Bloom (id:1010538)

马丁·亨德森 Martin Henderson (id:1027267)

科曼 Common (id:1031947)

阿历克斯·罗克 Alex Rocco (id:1032109)

内斯特·卡博内尔 Nestor Carbonell (id:1036424)

柯蒂斯·阿姆斯壮 Curtis Armstrong (id:1036527)

斯科特·布鲁姆 Scott Bloom (id:1022832)

Jeff Habberstad Jeff Habberstad (id:1285749)

杰里米·皮文 Jeremy Piven (id:1027071)

P. David Miller P. David Miller (id:1121965)

韦恩·牛顿 Wayne Newton (id:1136403)

克拉儿·凯瑞 Clare Carey (id:1018133)

大卫·普罗瓦尔 David Proval (id:1048222)

克里斯托弗·迈克尔·霍利 Christopher Michael Holley (id:1239727)

玛丽安妮·穆勒雷尔 Marianne Muellerleile (id:1132232)

Al Woodley Al Woodley (id:1055222)

达文尼亚·麦克法登 Davenia McFadden (id:1116054)

弗拉基米尔库利奇 Vladimir Kulich (id:1111672)

乔治·费舍尔 George Fisher (id:1083425)

Christopher Murray Christopher Murray (id:1136317)

约瑟夫·拉斯金 Joseph Ruskin (id:1144777)

Zach Cümer Zach Cümer (id:1236535)

Sheryl Chambers (id:1233745)

Mike Falkow Mike Falkow (id:1206505)

James Henderson James Henderson (id:1198609)

Scott Halberstadt Scott Halberstadt (id:1191741)

戴维·戈德史密斯 David Goldsmith (id:1167316)

莫瑞·史特林 Maury Sterling (id:1151824)

Nick Fenske Nick Fenske (id:1081652)

蒂姆·贝文 Tim Bevan (id:1278562)

Noel Donnellon Noel Donnellon (id:1051897)

罗伯特·格拉夫 Robert Graf (id:1092343)

埃里克·菲尔纳 Eric Fellner (id:1283560)

David Z. Obadiah David Z. Obadiah (id:1307856)

克林特·曼塞尔 Clint Mansell (id:1014159)

摩洛·斐欧拉 Mauro Fiore (id:1283756)

罗伯特·弗雷岑 Robert Frazen (id:1284123)

Amanda Mackey Johnson Amanda Mackey Johnson (id:1290650)

凯茜·桑德里奇 Cathy Sandrich (id:1296638)

马丁·惠斯特 Martin Whist (id:1300788)

Maria L. Baker Maria L. Baker (id:1277738)

玛丽·索弗瑞斯 Mary Zophres (id:1000969)

Anna Fleiner Anna Fleiner (id:1083059)

Cindy J. Williams Cindy J. Williams (id:1300951)

里克·斯特拉顿 Rick Stratton (id:1298538)

Teressa Hill Teressa Hill (id:1161004)

Evelyn Rozenfeld Evelyn Rozenfeld (id:1296255)

托尼·加德纳 Tony Gardner (id:1284564)

格雷格·方克 Greg Funk (id:1284333)

本布雷 Ben Bray (id:1276504)

Justin Muller Justin Muller (id:1136597)

布莱恩·福尔摩斯 Brian Holmes (id:1240351)

丹·考夫曼 Dan Kaufman (id:1288219)

托马斯·J·史密斯 Thomas J. Smith (id:1276658)

Jim O'Hagan Jim O'Hagan (id:1126364)

罗伯特·明斯克 Robert Minsk (id:1116366)

John Cassella John Cassella (id:1072146)

◎简 介

美国黑手党头目老普莱摩生命垂危,而此时他昔日的手下——魔术师巴迪(Jeremy Piven 饰)正与警方谈判,试图通过做污点证人来减轻自己的抢劫罪行,病床上的普莱摩下令拿到巴迪的心脏,并委托一名神秘的瑞典人处理此事。黑手党二号人物迅速发出了一百万美元的悬赏,誓要取得巴迪性命。截获此消息的警探理查德(Ryan Reynolds 饰)与唐纳德马上前往巴迪的所在地——太浩湖。与此同时,高额悬赏吸引了各路杀手,包括疯狂的纳粹三兄弟、辣妹双人组、易容杀手以及擅于刑讯的雇佣兵,三名离职警察亦同时受律师委托,带回弃保的巴迪。一时间,各路人马先后杀到巴迪潜藏的豪华酒店,将那里变成了混乱的战场……尘埃落定之后,理查德却发现了此案背后的玄机。

  1. ##### MediaInfo ######

  2. General

  3. Unique ID : 72591589035152901191277071930704910329 (0x369CA1AA34076C8C9849C6DCF3A1D7F9)

  4. Complete name : Smokin'.Aces.2006.2160p.HDR.UHD.BluRay.DTS-X.7.1.2Audio.x265-10bit-ENTHD.mkv

  5. Format : Matroska

  6. Format version : Version 4

  7. File size : 16.3 GiB

  8. Duration : 1 h 48 min

  9. Overall bit rate mode : Variable

  10. Overall bit rate : 21.5 Mb/s

  11. Movie name : Smokin' Aces 2006 2160p HDR UHD BluRay DTS-X 7.1 2Audio x265-10bit-HDS

  12. Encoded date : UTC 2022-05-06 21:14:42

  13. Writing application : mkvmerge v38.0.0 ('The Silent Type') 64-bit

  14. Writing library : libebml v1.3.9 + libmatroska v1.5.2


  15. Video

  16. ID : 1

  17. Format : HEVC

  18. Format/Info : High Efficiency Video Coding

  19. Format profile : Main [email protected]@High

  20. HDR format : SMPTE ST 2086, HDR10 compatible

  21. Codec ID : V_MPEGH/ISO/HEVC

  22. Duration : 1 h 48 min

  23. Bit rate : 15.7 Mb/s

  24. Width : 3 840 pixels

  25. Height : 1 632 pixels

  26. Display aspect ratio : 2.35:1

  27. Frame rate mode : Constant

  28. Frame rate : 23.976 (24000/1001/53354) FPS

  29. Color space : YUV

  30. Chroma subsampling : 4:2:0

  31. Bit depth : 10 bits

  32. Bits/(Pixel*Frame) : 0.104

  33. Stream size : 11.9 GiB (73%)

  34. Title : [email protected]

  35. Writing library : x265 - H.265/HEVC codec

  36. Default : Yes

  37. Forced : No

  38. Color range : Limited

  39. Color primaries : BT.2020

  40. Transfer characteristics : PQ

  41. Matrix coefficients : BT.2020 non-constant

  42. Mastering display color primaries : Display P3

  43. Mastering display luminance : min: 0.0020 cd/m2, max: 1000 cd/m2

  44. Maximum Content Light Level : 739 cd/m2

  45. Maximum Frame-Average Light Level : 331 cd/m2


  46. Audio #1

  47. ID : 2

  48. Format : DTS XLL X

  49. Format/Info : Digital Theater Systems

  50. Commercial name : DTS-HD Master Audio

  51. Codec ID : A_DTS

  52. Duration : 1 h 48 min

  53. Bit rate mode : Variable

  54. Bit rate : 3 526 kb/s

  55. Channel(s) : 8 channels

  56. Channel(s)_Original : Object Based

  57. ChannelLayout_Original : Object Based

  58. Sampling rate : 48.0 kHz

  59. Frame rate : 93.750 FPS (512 SPF)

  60. Bit depth : 24 bits

  61. Stream size : 2.68 GiB (16%)

  62. Title : English

  63. Language : English

  64. Default : Yes

  65. Forced : No


  66. Audio #2

  67. ID : 3

  68. Format : DTS XLL

  69. Format/Info : Digital Theater Systems

  70. Commercial name : DTS-HD Master Audio

  71. Codec ID : A_DTS

  72. Duration : 1 h 48 min

  73. Bit rate mode : Variable

  74. Bit rate : 2 169 kb/s

  75. Channel(s) : 6 channels

  76. Channel layout : C L R Ls Rs LFE

  77. Sampling rate : 48.0 kHz

  78. Frame rate : 93.750 FPS (512 SPF)

  79. Bit depth : 16 bits

  80. Compression mode : Lossless

  81. Stream size : 1.65 GiB (10%)

  82. Title : Mandarin

  83. Language : Chinese

  84. Default : No

  85. Forced : No


  86. Text #1

  87. ID : 4

  88. Format : PGS

  89. Muxing mode : zlib

  90. Codec ID : S_HDMV/PGS

  91. Codec ID/Info : Picture based subtitle format used on BDs/HD-DVDs

  92. Duration : 1 h 40 min

  93. Bit rate : 26.9 kb/s

  94. Count of elements : 2806

  95. Stream size : 19.3 MiB (0%)

  96. Title : CHS

  97. Language : Chinese

  98. Default : Yes

  99. Forced : No


  100. Text #2

  101. ID : 5

  102. Format : PGS

  103. Muxing mode : zlib

  104. Codec ID : S_HDMV/PGS

  105. Codec ID/Info : Picture based subtitle format used on BDs/HD-DVDs

  106. Duration : 1 h 40 min

  107. Bit rate : 28.2 kb/s

  108. Count of elements : 2798

  109. Stream size : 20.3 MiB (0%)

  110. Title : CHT

  111. Language : Chinese

  112. Default : No

  113. Forced : No


  114. Text #3

  115. ID : 6

  116. Format : PGS

  117. Muxing mode : zlib

  118. Codec ID : S_HDMV/PGS

  119. Codec ID/Info : Picture based subtitle format used on BDs/HD-DVDs

  120. Duration : 1 h 40 min

  121. Bit rate : 66.4 kb/s

  122. Count of elements : 3086

  123. Stream size : 47.6 MiB (0%)

  124. Title : CHS&ENG

  125. Language : Chinese

  126. Default : No

  127. Forced : No


  128. Text #4

  129. ID : 7

  130. Format : PGS

  131. Muxing mode : zlib

  132. Codec ID : S_HDMV/PGS

  133. Codec ID/Info : Picture based subtitle format used on BDs/HD-DVDs

  134. Duration : 1 h 40 min

  135. Bit rate : 66.8 kb/s

  136. Count of elements : 3086

  137. Stream size : 47.9 MiB (0%)

  138. Title : CHT&ENG

  139. Language : Chinese

  140. Default : No

  141. Forced : No


  142. Text #5

  143. ID : 8

  144. Format : PGS

  145. Muxing mode : zlib

  146. Codec ID : S_HDMV/PGS

  147. Codec ID/Info : Picture based subtitle format used on BDs/HD-NewHD

复制代码



文件下载


除非特别注明,本文『五路追杀令[国英多音轨/简繁字幕].Smokin'.Aces.2006.2160p.HDR.UHD.BluRay.DTS-X.7.1.2Audio.x265-10bit-ENTHD 16.31GB』来源于互联网机器人自动抓取,非本站原创。 浮游电影网不对本文拥有版权,如有侵犯,请联系邮箱:fuyouu#yandex.com[#换成@]投诉。我们会在15个工作日内删除。 但烦请转载时请标明出处:“本文转载于『浮游电影网』,原文地址:https://www.fuyouu.com/21933.html

评论吧骚年!

发表你的见解   

昵称*

E-mail*(建议输入,以便收到博主回复的提示邮件)

验证码*

您可以使用eMule或eMule Mod(Windows)、aMule(Win、Linux、Mac)等软件下载eD2k链接。。
eMule收藏集(.emulecollection)文件是您选中的所有链接的列表文件。eMule可以直接下载它们。
按住SHIFT键选择可以选中多个选择框。
可用文件名和大小选择器来选择文件。
文件名选择器帮您根据文件名称或后缀来选择文件。不分大小写。
符号使用:
和:空格( )、+
不包含:-
或:|
转义:一对英文引号("");
匹配开头:^
匹配结尾:$
例如:
选中所有名称中包含有“eMule”或“0.49c”字眼,但不包含有“exe”字眼的:emule|0.49c -exe
选中所有名称的开头是“eMule”,结尾是“0.49c”的:^emule 0.49c$
选中所有名称中带有“eMule 0.49c”的(必须是“eMule 0.49c”,中间没有别的字符,不能是“eMule fake 0.49c”),需要转义:"emule 0.49c"
大小选择器帮您根据文件大小选择文件。