当前位置: 首页 >> 欧美电影 >> 天使在人间[简繁英字幕].Date.with.an.Angel.1987.BluRay.1080p.DTS-HD.MA.2.0.x265.10bit-ALT 8.49GB >> 正文

天使在人间[简繁英字幕].Date.with.an.Angel.1987.BluRay.1080p.DTS-HD.MA.2.0.x265.10bit-ALT 8.49GB

2022年05月07日 12:15:21     电影发布:来源于网络     电影分类:欧美电影     评论(0)    

◎译 名 天使在人间

◎片 名 Date with an Angel

◎年 代 1987

◎产 地 美国

◎类 别 喜剧 / 爱情 / 奇幻

◎语 言 英语

◎上映日期 1987-11-20(美国)

◎IMDb链接 https://www.imdb.com/title/tt0092834/

◎豆瓣评分 7.5/10 (7602人评价)

◎豆瓣链接 https://movie.douban.com/subject/1301686/

◎片 长 105分钟

◎导 演 汤姆·麦克洛克林 Tom McLoughlin (id:1291688)

◎编 剧 汤姆·麦克洛克林 Tom McLoughlin (id:1291688)

Nancy McLoughlin Nancy McLoughlin (id:1115219)

◎演 员 艾曼纽·贝阿 Emmanuelle Béart (id:1041012)

大卫·杜克斯 David Dukes (id:1019170)

菲比·凯茨 Phoebe Cates (id:1009292)

迈克尔·E·奈特 Michael E. Knight (id:1112001)

菲尔·布罗克 Phil Brock (id:1069902)

艾伯特·麦克林 Albert Macklin (id:1122270)

汤姆·麦克洛克林 Tom McLoughlin (id:1291688)

伊芙·布伦特 Eve Brent (id:1279260)

比比·贝什 Bibi Besch (id:1055476)

Steven Banks Steven Banks (id:1277825)

谢丽尔·波拉克 Cheryl Pollak (id:1128356)

Nancy McLoughlin Nancy McLoughlin (id:1115219)

查尔斯·莱恩 Charles Lane (id:1113350)

黛比·玛扎 Debi Mazar (id:1025222)

何塞·洛佩斯·罗德罗 José López Rodero (id:1290555)

玛莎·德·劳伦提斯 Martha De Laurentiis (id:1148010)

兰迪·科伯 Randy Kerber (id:1029320)

亚历克斯·汤姆森 Alex Thomson (id:1055867)

Pamela Basker Pamela Basker (id:1278048)

Fern Champion Fern Champion (id:1280416)

克雷格·斯特恩斯 Craig Stearns (id:1298294)

Anne H. Ahrens Anne H. Ahrens (id:1276878)

Jeff Ginn Jeff Ginn (id:1029387)

黛比·玛扎 Debi Mazar (id:1025222)

Jeff Goodwin Jeff Goodwin (id:1099950)

布鲁斯·莫里亚蒂 Bruce Moriarty (id:1292506)

丹尼斯·迈克尔逊 Dennis Michelson (id:1008486)

Chris Regan Chris Regan (id:1146007)

马克·贝克 Mat Beck (id:1278183)

尼尔·克雷佩拉 Neil Krepela (id:1289019)

理查德·艾德兰德 Richard Edlund (id:1037446)

Adam Hill Adam Hill (id:1100038)

◎简 介

某个庄园内,正在举行一场豪华派对,以庆祝吉姆·桑德斯(麦克·E·奈特 Michael E. Knight 饰)和佩蒂·温斯顿(菲比·凯茨 Phoebe Cates 饰)的订婚仪式。派对最高潮时,吉姆的好友化装成劫匪将其绑架,一同去参加他们的单身汉聚会。狐朋狗友聚在一起,自然是酒色财气、昏天黑地。正在吉姆醉酒酣睡之时,屋外的泳池传来巨大响动,继而发现一个长着翅膀的美丽女孩(艾曼纽·贝阿 Emmanuelle Béart 饰)昏倒在泳池中。显而易见,这便是传说中的天使。当然更令吉姆焦虑的是,佩蒂误认为他和别的女孩另有奸情,佩蒂那专横的父亲则扬言要杀了这个薄情郎。吉姆的朋友们也不是省油的灯,处心积虑想靠天使赚上一笔。

从天而降的天使,给吉姆带来不小的麻烦……

  1. ##### MediaInfo ######

  2. General

  3. Unique ID : 116728466437843400360806835464879073484 (0x57D115BB2FFED614E032ACF58DEDE8CC)

  4. Complete name : Date.with.an.Angel.1987.BluRay.1080p.DTS-HD.MA.2.0.x265.10bit-ALT.mkv

  5. Format : Matroska

  6. Format version : Version 4

  7. File size : 8.49 GiB

  8. Duration : 1 h 45 min

  9. Overall bit rate mode : Variable

  10. Overall bit rate : 11.5 Mb/s

  11. Encoded date : UTC 2022-05-07 01:42:19

  12. Writing application : mkvmerge v49.0.0 ('Sick Of Losing Soulmates') 64-bit

  13. Writing library : libebml v1.4.0 + libmatroska v1.6.1


  14. Video

  15. ID : 1

  16. Format : HEVC

  17. Format/Info : High Efficiency Video Coding

  18. Format profile : Main [email protected]@High

  19. Codec ID : V_MPEGH/ISO/HEVC

  20. Duration : 1 h 45 min

  21. Bit rate : 9 680 kb/s

  22. Width : 1 920 pixels

  23. Height : 814 pixels

  24. Display aspect ratio : 2.35:1

  25. Frame rate mode : Constant

  26. Frame rate : 23.976 (24000/1001/53354) FPS

  27. Color space : YUV

  28. Chroma subsampling : 4:2:0

  29. Bit depth : 10 bits

  30. Bits/(Pixel*Frame) : 0.258

  31. Stream size : 7.14 GiB (84%)

  32. Title : HEVC, [email protected]@High, 24/1.001 fps @9679 kbps

  33. Writing library : x265 3.5+36-1f2c8da77:[Windows][GCC 11.2.0][64 bit] 10bit

  34. Encoding settings : cpuid=533541111039 / frame-threads=4 / numa-pools=16 / wpp / no-pmode / no-pme / no-psnr / no-ssim / log-level=2 / input-csp=1 / input-res=1920x814 / interlace=0 / total-frames=151943 / level-idc=51 / high-tier=1 / uhd-bd=0 / ref=5 / no-allow-non-conformance / no-repeat-headers / annexb / no-aud / no-eob / no-eos / no-hrd / info / hash=0 / no-temporal-layers / open-gop / min-keyint=24 / keyint=240 / gop-lookahead=0 / bframes=6 / b-adapt=2 / b-pyramid / bframe-bias=0 / rc-lookahead=40 / lookahead-slices=0 / NTMzNTQ=uuDQuD2mJt9fsCf / scenecut=40 / no-hist-scenecut / radl=0 / no-splice / no-intra-refresh / ctu=32 / min-cu-size=8 / no-rect / no-amp / max-tu-size=32 / tu-inter-depth=3 / tu-intra-depth=3 / limit-tu=4 / rdoq-level=2 / dynamic-rd=0.00 / no-ssim-rd / signhide / no-tskip / nr-intra=0 / nr-inter=0 / no-constrained-intra / no-strong-intra-smoothing / max-merge=4 / limit-refs=1 / limit-modes / me=3 / subme=4 / merange=25 / temporal-mvp / no-frame-dup / no-hme / weightp / weightb / no-analyze-src-pics / deblock=-3:-3 / no-sao / no-sao-non-deblock / rd=6 / selective-sao=0 / no-early-skip / rskip / no-fast-intra / no-tskip-fast / no-cu-lossless / b-intra / no-splitrd-skip / rdpenalty=0 / psy-rd=2.00 / psy-rdoq=1.00 / no-rd-refine / no-lossless / cbqpoffs=-2 / crqpoffs=-2 / rc=crf / crf=17.0 / qcomp=0.65 / qpstep=4 / stats-write=0 / stats-read=0 / vbv-maxrate=80000 / vbv-bufsize=80000 / vbv-init=0.9 / min-vbv-fullness=50.0 / max-vbv-fullness=80.0 / crf-max=0.0 / crf-min=0.0 / ipratio=1.40 / pbratio=1.30 / aq-mode=2 / aq-strength=0.85 / cutree / zone-count=0 / no-strict-cbr / qg-size=32 / no-rc-grain / qpmax=69 / qpmin=0 / no-const-vbv / sar=1 / overscan=0 / videoformat=5 / range=0 / colorprim=1 / transfer=1 / colormatrix=1 / chromaloc=0 / display-window=0 / cll=0,0 / min-luma=0 / max-luma=1023 / log2-max-poc-lsb=8 / vui-timing-info / vui-hrd-info / slices=1 / no-opt-qp-pps / no-opt-ref-list-length-pps / no-multi-pass-opt-rps / scenecut-bias=0.05 / hist-threshold=0.03 / no-opt-cu-delta-qp / no-aq-motion / no-hdr10 / no-hdr10-opt / no-dhdr10-opt / no-idr-recovery-sei / analysis-reuse-level=0 / analysis-save-reuse-level=0 / analysis-load-reuse-level=0 / scale-factor=0 / refine-intra=0 / refine-inter=0 / refine-mv=1 / refine-ctu-distortion=0 / no-limit-sao / ctu-info=0 / no-lowpass-dct / refine-analysis-type=0 / copy-pic=1 / max-ausize-factor=1.0 / no-dynamic-refine / no-single-sei / no-hevc-aq / no-svt / no-field / qp-adaptation-range=1.00 / scenecut-aware-qp=0conformance-window-offsets / right=0 / bottom=0 / NTMzNTQ= / decoder-max-rate=0 / no-vbv-live-multi-pass

  35. Language : English

  36. Default : Yes

  37. Forced : No

  38. Color range : Limited

  39. Color primaries : BT.709

  40. Transfer characteristics : BT.709

  41. Matrix coefficients : BT.709


  42. Audio #1

  43. ID : 2

  44. Format : DTS XLL

  45. Format/Info : Digital Theater Systems

  46. Commercial name : DTS-HD Master Audio

  47. Codec ID : A_DTS

  48. Duration : 1 h 45 min

  49. Bit rate mode : Variable

  50. Bit rate : 1 558 kb/s

  51. Channel(s) : 2 channels

  52. Channel layout : L R

  53. Sampling rate : 48.0 kHz

  54. Frame rate : 93.750 FPS (512 SPF)

  55. Bit depth : 16 bits

  56. Compression mode : Lossless

  57. Stream size : 1.15 GiB (14%)

  58. Title : English DTS-HD Master Audio 2.0 @ 1555 kbps

  59. Language : English

  60. Default : Yes

  61. Forced : No


  62. Audio #2

  63. ID : 3

  64. Format : AC-3

  65. Format/Info : Audio Coding 3

  66. Commercial name : Dolby Digital

  67. Codec ID : A_AC3

  68. Duration : 1 h 45 min

  69. Bit rate mode : Constant

  70. Bit rate : 192 kb/s

  71. Channel(s) : 2 channels

  72. Channel layout : L R

  73. Sampling rate : 48.0 kHz

  74. Frame rate : 31.250 FPS (1536 SPF)

  75. Compression mode : Lossy

  76. Stream size : 145 MiB (2%)

  77. Title : English Dolby Digital Audio 2.0 @ 192 kbps Commentary

  78. Language : English

  79. Service kind : Complete Main

  80. Default : No

  81. Forced : No


  82. Text #1

  83. ID : 4

  84. Format : PGS

  85. Codec ID : S_HDMV/PGS

  86. Codec ID/Info : Picture based subtitle format used on BDs/HD-DVDs

  87. Duration : 1 h 41 min

  88. Bit rate : 28.4 kb/s

  89. Count of elements : 1511

  90. Stream size : 20.6 MiB (0%)

  91. Title : Eng/SUP

  92. Language : English

  93. Default : No

  94. Forced : No


  95. Text #2

  96. ID : 5

  97. Format : PGS

  98. Codec ID : S_HDMV/PGS

  99. Codec ID/Info : Picture based subtitle format used on BDs/HD-DVDs

  100. Duration : 1 h 41 min

  101. Bit rate : 24.9 kb/s

  102. Count of elements : 1364

  103. Stream size : 18.0 MiB (0%)

  104. Title : Chs/SUP 简体

  105. Language : Chinese

  106. Default : Yes

  107. Forced : No


  108. Text #3

  109. ID : 6

  110. Format : PGS

  111. Codec ID : S_HDMV/PGS

  112. Codec ID/Info : Picture based subtitle format used on BDs/HD-DVDs

  113. Duration : 1 h 41 min

  114. Bit rate : 25.3 kb/s

  115. Count of elements : 1364

  116. Stream size : 18.3 MiB (0%)

  117. Title : Cht/SUP 繁体

  118. Language : Chinese

  119. Default : No

  120. Forced : No


  121. Menu

  122. 00:00:00.000 : en:第 01 章

  123. 00:11:59.260 : en:第 02 章

  124. 00:19:13.444 : en:第 03 章

  125. 00:32:38.373 : en:第 04 章

  126. 00:46:00.049 : en:第 05 章

  127. 00:54:20.549 : en:第 06 章

  128. 01:05:23.920 : en:第 07 章

  129. 01:16:04.059 : en:第 08 章

  130. 01:26:51.915 : en:第 09 章

  131. 01:34:55.648 : en:第 10 章




复制代码



文件下载


除非特别注明,本文『天使在人间[简繁英字幕].Date.with.an.Angel.1987.BluRay.1080p.DTS-HD.MA.2.0.x265.10bit-ALT 8.49GB』来源于互联网机器人自动抓取,非本站原创。 浮游电影网不对本文拥有版权,如有侵犯,请联系邮箱:fuyouu#yandex.com[#换成@]投诉。我们会在15个工作日内删除。 但烦请转载时请标明出处:“本文转载于『浮游电影网』,原文地址:https://www.fuyouu.com/21932.html

评论吧骚年!

发表你的见解   

昵称*

E-mail*(建议输入,以便收到博主回复的提示邮件)

验证码*

您可以使用eMule或eMule Mod(Windows)、aMule(Win、Linux、Mac)等软件下载eD2k链接。。
eMule收藏集(.emulecollection)文件是您选中的所有链接的列表文件。eMule可以直接下载它们。
按住SHIFT键选择可以选中多个选择框。
可用文件名和大小选择器来选择文件。
文件名选择器帮您根据文件名称或后缀来选择文件。不分大小写。
符号使用:
和:空格( )、+
不包含:-
或:|
转义:一对英文引号("");
匹配开头:^
匹配结尾:$
例如:
选中所有名称中包含有“eMule”或“0.49c”字眼,但不包含有“exe”字眼的:emule|0.49c -exe
选中所有名称的开头是“eMule”,结尾是“0.49c”的:^emule 0.49c$
选中所有名称中带有“eMule 0.49c”的(必须是“eMule 0.49c”,中间没有别的字符,不能是“eMule fake 0.49c”),需要转义:"emule 0.49c"
大小选择器帮您根据文件大小选择文件。