当前位置: 首页 >> 欧美电影 >> 忠犬[简繁英字幕].Dog.2022.BluRay.1080p.x265.10bit.DDP5.1-MiniHD 5.72GB >> 正文

忠犬[简繁英字幕].Dog.2022.BluRay.1080p.x265.10bit.DDP5.1-MiniHD 5.72GB

2022年05月07日 12:13:27     电影发布:来源于网络     电影分类:欧美电影     评论(0)    

◎译 名 忠犬 / 逍遥上路(台)

◎片 名 Dog

◎年 代 2022

◎产 地 美国

◎类 别 喜剧

◎语 言 英语

◎上映日期 2022-02-18(美国)

◎IMDb链接 https://www.imdb.com/title/tt11252248/

◎豆瓣评分 6.7/10 (1031人评价)

◎豆瓣链接 https://movie.douban.com/subject/34881711/

◎片 长 101分钟

◎导 演 雷德·卡罗林 Reid Carolin (id:1015577)

查宁·塔图姆 Channing Tatum (id:1031224)

◎编 剧 雷德·卡罗林 Reid Carolin (id:1015577)

布雷特·罗格里格兹 Brett Rodriguez (id:1468368)

查宁·塔图姆 Channing Tatum (id:1031224)

◎演 员 查宁·塔图姆 Channing Tatum (id:1031224)

简·亚当斯 Jane Adams (id:1060981)

凯文·纳什 Kevin Nash (id:1010684)

考莉安卡·基尔彻 Q'orianka Kilcher (id:1103825)

伊桑·苏普利 Ethan Suplee (id:1017960)

卢克·福布斯 Luke Forbes (id:1468370)

罗尼·吉恩·贝尔维斯 Ronnie Gene Blevins (id:1018380)

阿奎拉·佐尔 Aqueela Zoll (id:1345321)

尼克尔·拉里贝特 Nicole LaLiberte (id:1329074)

凯登·博伊德 Cayden Boyd (id:1221382)

斯凯勒·乔伊 Skyler Joy (id:1440759)

特伦特·布克斯顿 Trent Buxton (id:1428355)

达伦·凯兰 Darren Keilan (id:1386093)

内雷达·贝加 Neraida Bega (id:1457411)

汤姆·贝耶 Tom Beyer (id:1339511)

蒂莫西·尤里齐 Timothy Eulich (id:1356398)

裘斯 B.詹哈迪 Junes B. Zahdi (id:1227159)

布雷特·霍兰德 Brett Holland (id:1315711)

安德鲁·康斯坦丁尼 Andrew Constantini (id:1430738)

克里斯·博登 Chris Borden (id:1268460)

托马斯·纽曼 Thomas Newman (id:1027939)

◎简 介

剧情讲述美国陆军游骑兵布里格(查宁·塔图姆 饰)的任务是将比利时牧羊军犬露露从路易斯–麦克乔德联合基地沿太平洋海岸及时带到亚利桑那州诺加里斯,以便及时参加露露训导员的葬礼,一路上人狗间培养出了深刻的友谊。

  1. ##### MediaInfo ######

  2. General

  3. Unique ID : 88600416515383864327063057579731671622 (0x42A7D1CC67909D5983991D75A4095A46)

  4. Complete name : Dog.2022.BluRay.1080p.x265.10bit.DDP5.1-MiniHD.mkv

  5. Format : Matroska

  6. Format version : Version 4

  7. File size : 5.72 GiB

  8. Duration : 1 h 41 min

  9. Overall bit rate : 8 081 kb/s

  10. Movie name : Dog

  11. Encoded date : UTC 2022-05-06 08:04:08

  12. Writing application : mkvmerge v66.0.0 ('Josie') 64-bit

  13. Writing library : libebml v1.4.2 + libmatroska v1.6.4

  14. Cover : Yes

  15. Attachments : cover.jpg


  16. Video

  17. ID : 1

  18. Format : HEVC

  19. Format/Info : High Efficiency Video Coding

  20. Format profile : Main [email protected]@High

  21. Codec ID : V_MPEGH/ISO/HEVC

  22. Duration : 1 h 41 min

  23. Bit rate : 6 971 kb/s

  24. Width : 1 920 pixels

  25. Height : 800 pixels

  26. Display aspect ratio : 2.40:1

  27. Frame rate mode : Constant

  28. Frame rate : 23.976 (24000/1001/53354) FPS

  29. Color space : YUV

  30. Chroma subsampling : 4:2:0

  31. Bit depth : 10 bits

  32. Bits/(Pixel*Frame) : 0.189

  33. Stream size : 4.94 GiB (86%)

  34. Writing library : x265 3.5+29-3415705dd:[Windows][MSVC 1930][64 bit] 10bit

  35. Encoding settings : cpuid=533541111039 / frame-threads=4 / numa-pools=16 / wpp / pmode / no-pme / no-psnr / no-ssim / log-level=2 / input-csp=1 / input-res=1920x800 / interlace=0 / total-frames=145821 / level-idc=0 / high-tier=1 / uhd-bd=0 / ref=6 / no-allow-non-conformance / no-repeat-headers / annexb / no-aud / no-eob / no-eos / no-hrd / info / hash=0 / no-temporal-layers / no-open-gop / min-keyint=1 / keyint=250 / gop-lookahead=0 / bframes=8 / b-adapt=2 / b-pyramid / bframe-bias=0 / rc-lookahead=100 / lookahead-slices=0 / NTMzNTQ=uuDQuD2mJt9fsCf / scenecut=40 / no-hist-scenecut / radl=0 / no-splice / no-intra-refresh / ctu=32 / min-cu-size=8 / no-rect / no-amp / max-tu-size=32 / tu-inter-depth=4 / tu-intra-depth=4 / limit-tu=0 / rdoq-level=2 / dynamic-rd=0.00 / no-ssim-rd / signhide / no-tskip / nr-intra=0 / nr-inter=0 / no-constrained-intra / no-strong-intra-smoothing / max-merge=5 / limit-refs=0 / no-limit-modes / me=3 / subme=5 / merange=57 / temporal-mvp / no-frame-dup / no-hme / weightp / weightb / no-analyze-src-pics / deblock=-3:-3 / no-sao / no-sao-non-deblock / rd=4 / selective-sao=0 / no-early-skip / no-rskip / no-fast-intra / no-tskip-fast / no-cu-lossless / b-intra / no-splitrd-skip / rdpenalty=0 / psy-rd=1.50 / psy-rdoq=1.00 / no-rd-refine / no-lossless / cbqpoffs=-2 / crqpoffs=-2 / rc=crf / crf=19.5 / qcomp=0.65 / qpstep=4 / stats-write=0 / stats-read=0 / vbv-maxrate=160000 / vbv-bufsize=160000 / vbv-init=0.9 / min-vbv-fullness=50.0 / max-vbv-fullness=80.0 / crf-max=0.0 / crf-min=0.0 / ipratio=1.30 / pbratio=1.20 / aq-mode=1 / aq-strength=1.00 / no-cutree / zone-count=0 / no-strict-cbr / qg-size=8 / no-rc-grain / qpmax=69 / qpmin=0 / no-const-vbv / sar=0 / overscan=0 / videoformat=5 / range=0 / colorprim=1 / transfer=1 / colormatrix=1 / chromaloc=0 / display-window=0 / cll=0,0 / min-luma=0 / max-luma=1023 / log2-max-poc-lsb=8 / vui-timing-info / vui-hrd-info / slices=1 / no-opt-qp-pps / no-opt-ref-list-length-pps / no-multi-pass-opt-rps / scenecut-bias=0.05 / hist-threshold=0.03 / no-opt-cu-delta-qp / no-aq-motion / no-hdr10 / no-hdr10-opt / no-dhdr10-opt / no-idr-recovery-sei / analysis-reuse-level=0 / analysis-save-reuse-level=0 / analysis-load-reuse-level=0 / scale-factor=0 / refine-intra=0 / refine-inter=0 / refine-mv=1 / refine-ctu-distortion=0 / no-limit-sao / ctu-info=0 / no-lowpass-dct / refine-analysis-type=0 / copy-pic=1 / max-ausize-factor=1.0 / no-dynamic-refine / no-single-sei / no-hevc-aq / no-svt / no-field / qp-adaptation-range=1.00 / scenecut-aware-qp=0conformance-window-offsets / right=0 / bottom=0 / NTMzNTQ= / decoder-max-rate=0 / no-vbv-live-multi-pass

  36. Default : Yes

  37. Forced : No

  38. Color range : Limited

  39. Color primaries : BT.709

  40. Transfer characteristics : BT.709

  41. Matrix coefficients : BT.709


  42. Audio

  43. ID : 2

  44. Format : E-AC-3

  45. Format/Info : Enhanced AC-3

  46. Commercial name : Dolby Digital Plus

  47. Codec ID : A_EAC3

  48. Duration : 1 h 41 min

  49. Bit rate mode : Constant

  50. Bit rate : 1 024 kb/s

  51. Channel(s) : 6 channels

  52. Channel layout : L R C LFE Ls Rs

  53. Sampling rate : 48.0 kHz

  54. Frame rate : 31.250 FPS (1536 SPF)

  55. Compression mode : Lossy

  56. Stream size : 742 MiB (13%)

  57. Service kind : Complete Main

  58. Default : Yes

  59. Forced : No


  60. Text #1

  61. ID : 3

  62. Format : PGS

  63. Muxing mode : zlib

  64. Codec ID : S_HDMV/PGS

  65. Codec ID/Info : Picture based subtitle format used on BDs/HD-DVDs

  66. Duration : 1 h 40 min

  67. Bit rate : 24.9 kb/s

  68. Count of elements : 2318

  69. Stream size : 17.9 MiB (0%)

  70. Title : CHS

  71. Language : Chinese

  72. Default : No

  73. Forced : No


  74. Text #2

  75. ID : 4

  76. Format : PGS

  77. Muxing mode : zlib

  78. Codec ID : S_HDMV/PGS

  79. Codec ID/Info : Picture based subtitle format used on BDs/HD-DVDs

  80. Duration : 1 h 40 min

  81. Bit rate : 45.1 kb/s

  82. Count of elements : 2318

  83. Stream size : 32.5 MiB (1%)

  84. Title : CHS&ENG

  85. Language : Chinese

  86. Default : Yes

  87. Forced : No


  88. Text #3

  89. ID : 5

  90. Format : PGS

  91. Muxing mode : zlib

  92. Codec ID : S_HDMV/PGS

  93. Codec ID/Info : Picture based subtitle format used on BDs/HD-DVDs

  94. Duration : 1 h 40 min

  95. Bit rate : 25.4 kb/s

  96. Count of elements : 2318

  97. Stream size : 18.3 MiB (0%)

  98. Title : CHT

  99. Language : Chinese

  100. Default : No

  101. Forced : No


  102. Text #4

  103. ID : 6

  104. Format : PGS

  105. Muxing mode : zlib

  106. Codec ID : S_HDMV/PGS

  107. Codec ID/Info : Picture based subtitle format used on BDs/HD-DVDs

  108. Duration : 1 h 40 min

  109. Bit rate : 45.5 kb/s

  110. Count of elements : 2318

  111. Stream size : 32.8 MiB (1%)

  112. Title : CHT&ENG

  113. Language : Chinese

  114. Default : No

  115. Forced : No


  116. Text #5

  117. ID : 7

  118. ID in the original source medium : 4608 (0x1200)

  119. Format : PGS

  120. Muxing mode : zlib

  121. Codec ID : S_HDMV/PGS

  122. Codec ID/Info : Picture based subtitle format used on BDs/HD-DVDs

  123. Duration : 1 h 38 min

  124. Bit rate : 49.5 kb/s

  125. Count of elements : 3674

  126. Stream size : 35.0 MiB (1%)

  127. Title : ENG

  128. Language : English

  129. Default : No

  130. Forced : No

  131. Original source medium : Blu-NewHD



文件下载


除非特别注明,本文『忠犬[简繁英字幕].Dog.2022.BluRay.1080p.x265.10bit.DDP5.1-MiniHD 5.72GB』来源于互联网机器人自动抓取,非本站原创。 浮游电影网不对本文拥有版权,如有侵犯,请联系邮箱:fuyouu#yandex.com[#换成@]投诉。我们会在15个工作日内删除。 但烦请转载时请标明出处:“本文转载于『浮游电影网』,原文地址:https://www.fuyouu.com/21930.html

评论吧骚年!

发表你的见解   

昵称*

E-mail*(建议输入,以便收到博主回复的提示邮件)

验证码*

您可以使用eMule或eMule Mod(Windows)、aMule(Win、Linux、Mac)等软件下载eD2k链接。。
eMule收藏集(.emulecollection)文件是您选中的所有链接的列表文件。eMule可以直接下载它们。
按住SHIFT键选择可以选中多个选择框。
可用文件名和大小选择器来选择文件。
文件名选择器帮您根据文件名称或后缀来选择文件。不分大小写。
符号使用:
和:空格( )、+
不包含:-
或:|
转义:一对英文引号("");
匹配开头:^
匹配结尾:$
例如:
选中所有名称中包含有“eMule”或“0.49c”字眼,但不包含有“exe”字眼的:emule|0.49c -exe
选中所有名称的开头是“eMule”,结尾是“0.49c”的:^emule 0.49c$
选中所有名称中带有“eMule 0.49c”的(必须是“eMule 0.49c”,中间没有别的字符,不能是“eMule fake 0.49c”),需要转义:"emule 0.49c"
大小选择器帮您根据文件大小选择文件。