当前位置: 首页 >> 欧美电影 >> 像素大战[简繁英特效字幕].Pixels.2015.BluRay.1080p-MiniHD 7.92GB >> 正文

像素大战[简繁英特效字幕].Pixels.2015.BluRay.1080p-MiniHD 7.92GB

2022年05月07日 12:08:55     电影发布:来源于网络     电影分类:欧美电影     评论(0)    

◎译 名 像素大战 / 世界大对战(台) / 屈机起格命(港) / 像素入侵 / 天煞:像素之战 / 像素之战

◎片 名 Pixels

◎年 代 2015

◎产 地 美国 / 中国大陆

◎类 别 喜剧 / 动作 / 科幻

◎语 言 英语 / 印地语 / 日语

◎上映日期 2015-09-15(中国大陆) / 2015-07-24(美国)

◎IMDb链接 https://www.imdb.com/title/tt2120120/

◎豆瓣评分 6.3/10 (90360人评价)

◎豆瓣链接 https://movie.douban.com/subject/25838463/

◎片 长 106分钟

◎导 演 克里斯·哥伦布 Chris Columbus (id:1049716)

◎编 剧 提姆·赫利希 Tim Herlihy (id:1028003)

蒂莫斯·道灵 Timothy Dowling (id:1041399)

帕特里克·简 Patrick Jean (id:1345537)

亚当·桑德勒 Adam Sandler (id:1054523)

◎演 员 亚当·桑德勒 Adam Sandler (id:1054523)

凯文·詹姆斯 Kevin James (id:1044719)

米歇尔·莫纳汉 Michelle Monaghan (id:1000015)

彼特·丁拉基 Peter Dinklage (id:1019009)

乔什·加德 Josh Gad (id:1305235)

布莱恩·考克斯 Brian Cox (id:1019027)

马特·林茨 Matt Lintz (id:1350749)

肖恩·宾 Sean Bean (id:1002683)

简·科拉克斯基 Jane Krakowski (id:1027199)

丹·艾克罗伊德 Dan Aykroyd (id:1010562)

艾菲恩·克洛科特 Affion Crockett (id:1350748)

莱妮·卡赞 Lainie Kazan (id:1048186)

艾什莉·本森 Ashley Benson (id:1036301)

玛莎·斯图尔特 Martha Stewart (id:1156402)

丹尼斯·秋山 Denis Akiyama (id:1350747)

汤姆·麦卡锡 Tom McCarthy (id:1004746)

提姆·赫利希 Tim Herlihy (id:1028003)

杰姬·桑德勒 Jackie Sandler (id:1027260)

杰瑞德·桑德勒 Jared Sandler (id:1348602)

威廉·S·泰勒 William S. Taylor (id:1350750)

罗丝·洛林斯 Rose Rollins (id:1045083)

塔克·斯莫尔伍德 Tucker Smallwood (id:1159505)

塞蕾娜·威廉姆斯 Serena Williams (id:1027474)

艾伦·卡瓦特 Allen Covert (id:1027198)

珊妮·桑德勒 Sunny Sandler (id:1373774)

Mark Whalen Mark Whalen (id:1351035)

Bill Lake Bill Lake (id:1351036)

岩谷彻 Toru Iwatani (id:1170460)

费奥纳·肖 Fiona Shaw (id:1009364)

比利·维斯特 Billy West (id:1165301)

马泰 Tzi Ma (id:1321381)

丹·帕特里克 Dan Patrick (id:1128326)

莎蒂·桑德勒 Sadie Sandler (id:1246500)

迈克·布瓦韦尔 Michael Boisvert (id:1054577)

詹姆斯·普雷斯顿·罗杰斯 James Preston Rogers (id:1229097)

克里斯·哥伦布 Chris Columbus (id:1049716)

亨利·杰克曼 Henry Jackman (id:1315635)

克里斯蒂娜·瓦达 Christine Wada (id:1465734)

简·菲利普·克雷默 Jan Philip Cramer (id:1414096)

特伦斯·伯杰龙 Terrence Bergeron (id:1411064)

杰西卡卡林顿 Jessica Carrington (id:1404965)

◎简 介

21世纪某天,神秘外星人突然入侵地球。奇怪的是外星人全部以20世纪80年代所流行的像素电子游戏形象出现,凡是被它们碰过的物体、人类无一例外都被像素化。现任美国总统威尔·库珀(凯文·詹姆斯 Kevin James 饰)深感事态严重,连忙电话叫来的当年极为擅长街机游戏的玩伴山姆·布伦纳(亚当·桑德勒 Adam Sandler 饰)。在另一个怪鸡朋友勒德洛·莱门梢夫(乔什·加德 Josh Gad 饰)的指点下,他们似乎明白了外星人的真身。入侵接二连三袭来,这群大男孩找来曾经的死对头埃迪·普兰特(彼特·丁克拉奇 Peter Dinklage 饰),联合与伪装成游戏的外星人们展开3D像素大作战。

地球危在旦夕,这可真不是能让人轻松以对的游戏……

◎获奖情况 (共9项)

第36届金酸莓奖 (2016)

最差影片(提名)

最差男主角(提名)

└──亚当·桑德勒 (id:1054523)

最差男配角(提名)

最差女配角(提名)

└──米歇尔·莫纳汉 (id:1000015)

最差剧本(提名)

第17届美国青少年选择奖 (2015)

最佳暑期电影男演员(提名)

└──亚当·桑德勒 (id:1054523)

第6届豆瓣电影鑫像奖 (2016)

豆渣单元 最渣影片(外语)(提名)

豆渣单元 最渣导演(外语)(提名)

└──克里斯·哥伦布 (id:1049716)

豆渣单元 最渣男演员(外语)(提名)

└──亚当·桑德勒 (id:1054523)

  1. ##### MediaInfo ######

  2. General

  3. Unique ID : 263171888367641932318569814941309867915 (0xC5FD0FE161FB127455706F30B234178B)

  4. Complete name : Pixels.2015.BluRay.1080p.10bit.x265.DDP7.1-MiniHD.mkv

  5. Format : Matroska

  6. Format version : Version 4

  7. File size : 7.92 GiB

  8. Duration : 1 h 45 min

  9. Overall bit rate : 10.7 Mb/s

  10. Movie name : Pixels.2015.BluRay.1080p.10bit.x265.DDP7.1.-FRDS

  11. Encoded date : UTC 2022-05-06 06:05:50

  12. Writing application : mkvmerge v66.0.0 ('Josie') 64-bit

  13. Writing library : libebml v1.4.2 + libmatroska v1.6.4


  14. Video

  15. ID : 1

  16. Format : HEVC

  17. Format/Info : High Efficiency Video Coding

  18. Format profile : Main [email protected]@High

  19. Codec ID : V_MPEGH/ISO/HEVC

  20. Duration : 1 h 45 min

  21. Bit rate : 8 772 kb/s

  22. Width : 1 920 pixels

  23. Height : 804 pixels

  24. Display aspect ratio : 2.40:1

  25. Frame rate mode : Constant

  26. Frame rate : 23.976 (24000/1001/53354) FPS

  27. Color space : YUV

  28. Chroma subsampling : 4:2:0

  29. Bit depth : 10 bits

  30. Bits/(Pixel*Frame) : 0.237

  31. Stream size : 6.48 GiB (82%)

  32. Writing library : x265 3.5+29-3415705dd:[Windows][MSVC 1930][64 bit] 10bit

  33. Encoding settings : cpuid=533541111039 / frame-threads=5 / numa-pools=32 / wpp / pmode / no-pme / no-psnr / no-ssim / log-level=2 / input-csp=1 / input-res=1920x804 / interlace=0 / total-frames=152232 / level-idc=0 / high-tier=1 / uhd-bd=0 / ref=6 / no-allow-non-conformance / no-repeat-headers / annexb / no-aud / no-eob / no-eos / no-hrd / info / hash=0 / no-temporal-layers / no-open-gop / min-keyint=1 / keyint=250 / gop-lookahead=0 / bframes=8 / b-adapt=2 / b-pyramid / bframe-bias=0 / rc-lookahead=100 / lookahead-slices=0 / NTMzNTQ=uuDQuD2mJt9fsCf / scenecut=40 / no-hist-scenecut / radl=0 / no-splice / no-intra-refresh / ctu=32 / min-cu-size=8 / no-rect / no-amp / max-tu-size=32 / tu-inter-depth=4 / tu-intra-depth=4 / limit-tu=0 / rdoq-level=2 / dynamic-rd=0.00 / no-ssim-rd / signhide / tskip / nr-intra=0 / nr-inter=0 / no-constrained-intra / no-strong-intra-smoothing / max-merge=5 / limit-refs=0 / no-limit-modes / me=3 / subme=7 / merange=57 / temporal-mvp / no-frame-dup / no-hme / weightp / weightb / no-analyze-src-pics / deblock=-3:-3 / no-sao / no-sao-non-deblock / rd=6 / selective-sao=0 / no-early-skip / no-rskip / no-fast-intra / no-tskip-fast / no-cu-lossless / b-intra / no-splitrd-skip / rdpenalty=0 / psy-rd=1.50 / psy-rdoq=1.00 / no-rd-refine / no-lossless / cbqpoffs=-2 / crqpoffs=-2 / rc=crf / crf=18.0 / qcomp=0.65 / qpstep=4 / stats-write=0 / stats-read=0 / vbv-maxrate=160000 / vbv-bufsize=160000 / vbv-init=0.9 / min-vbv-fullness=50.0 / max-vbv-fullness=80.0 / crf-max=0.0 / crf-min=0.0 / ipratio=1.30 / pbratio=1.20 / aq-mode=1 / aq-strength=1.00 / no-cutree / zone-count=0 / no-strict-cbr / qg-size=8 / no-rc-grain / qpmax=69 / qpmin=0 / no-const-vbv / sar=0 / overscan=0 / videoformat=5 / range=0 / colorprim=1 / transfer=1 / colormatrix=1 / chromaloc=0 / display-window=0 / cll=0,0 / min-luma=0 / max-luma=1023 / log2-max-poc-lsb=8 / vui-timing-info / vui-hrd-info / slices=1 / no-opt-qp-pps / no-opt-ref-list-length-pps / no-multi-pass-opt-rps / scenecut-bias=0.05 / hist-threshold=0.03 / no-opt-cu-delta-qp / no-aq-motion / no-hdr10 / no-hdr10-opt / no-dhdr10-opt / no-idr-recovery-sei / analysis-reuse-level=0 / analysis-save-reuse-level=0 / analysis-load-reuse-level=0 / scale-factor=0 / refine-intra=0 / refine-inter=0 / refine-mv=1 / refine-ctu-distortion=0 / no-limit-sao / ctu-info=0 / no-lowpass-dct / refine-analysis-type=0 / copy-pic=1 / max-ausize-factor=1.0 / no-dynamic-refine / no-single-sei / no-hevc-aq / no-svt / no-field / qp-adaptation-range=1.00 / scenecut-aware-qp=0conformance-window-offsets / right=0 / bottom=0 / NTMzNTQ= / decoder-max-rate=0 / no-vbv-live-multi-pass

  34. Default : Yes

  35. Forced : No

  36. Color range : Limited

  37. Color primaries : BT.709

  38. Transfer characteristics : BT.709

  39. Matrix coefficients : BT.709


  40. Audio #1

  41. ID : 2

  42. Format : E-AC-3

  43. Format/Info : Enhanced AC-3

  44. Commercial name : Dolby Digital Plus

  45. Format profile : Blu-ray Disc

  46. Codec ID : A_EAC3

  47. Duration : 1 h 45 min

  48. Bit rate mode : Constant

  49. Bit rate : 1 536 kb/s

  50. Channel(s) : 8 channels

  51. Channel layout : L R C LFE Ls Rs Lb Rb

  52. Sampling rate : 48.0 kHz

  53. Frame rate : 31.250 FPS (1536 SPF)

  54. Compression mode : Lossy

  55. Stream size : 1.14 GiB (14%)

  56. Language : English

  57. Service kind : Complete Main

  58. Default : Yes

  59. Forced : No


  60. Audio #2

  61. ID : 3

  62. Format : AAC LC

  63. Format/Info : Advanced Audio Codec Low Complexity

  64. Codec ID : A_AAC-2

  65. Duration : 1 h 45 min

  66. Bit rate : 163 kb/s

  67. Channel(s) : 2 channels

  68. Channel layout : L R

  69. Sampling rate : 48.0 kHz

  70. Frame rate : 46.875 FPS (1024 SPF)

  71. Compression mode : Lossy

  72. Stream size : 124 MiB (2%)

  73. Language : English

  74. Default : No

  75. Forced : No


  76. Text #1

  77. ID : 4

  78. Format : PGS

  79. Muxing mode : zlib

  80. Codec ID : S_HDMV/PGS

  81. Codec ID/Info : Picture based subtitle format used on BDs/HD-DVDs

  82. Duration : 1 h 41 min

  83. Bit rate : 408 kb/s

  84. Count of elements : 15695

  85. Stream size : 296 MiB (4%)

  86. Title : CHS&ENG(特效)

  87. Language : Chinese

  88. Default : Yes

  89. Forced : No


  90. Text #2

  91. ID : 5

  92. Format : PGS

  93. Muxing mode : zlib

  94. Codec ID : S_HDMV/PGS

  95. Codec ID/Info : Picture based subtitle format used on BDs/HD-DVDs

  96. Duration : 1 h 39 min

  97. Bit rate : 34.5 kb/s

  98. Count of elements : 3062

  99. Stream size : 24.5 MiB (0%)

  100. Title : CHS

  101. Language : Chinese

  102. Default : No

  103. Forced : No


  104. Text #3

  105. ID : 6

  106. Format : PGS

  107. Muxing mode : zlib

  108. Codec ID : S_HDMV/PGS

  109. Codec ID/Info : Picture based subtitle format used on BDs/HD-DVDs

  110. Duration : 1 h 39 min

  111. Bit rate : 33.3 kb/s

  112. Count of elements : 3090

  113. Stream size : 23.7 MiB (0%)

  114. Title : CHT

  115. Language : Chinese

  116. Default : No

  117. Forced : No


  118. Text #4

  119. ID : 7

  120. Format : PGS

  121. Muxing mode : zlib

  122. Codec ID : S_HDMV/PGS

  123. Codec ID/Info : Picture based subtitle format used on BDs/HD-DVDs

  124. Duration : 1 h 36 min

  125. Bit rate : 46.9 kb/s

  126. Count of elements : 3025

  127. Stream size : 32.3 MiB (0%)

  128. Language : English

  129. Default : No

  130. Forced : No


  131. Text #5

  132. ID : 8

  133. Format : PGS

  134. Muxing mode : zlib

  135. Codec ID : S_HDMV/PGS

  136. Codec ID/Info : Picture based subtitle format used on BDs/HD-NewHD

复制代码



文件下载


除非特别注明,本文『像素大战[简繁英特效字幕].Pixels.2015.BluRay.1080p-MiniHD 7.92GB』来源于互联网机器人自动抓取,非本站原创。 浮游电影网不对本文拥有版权,如有侵犯,请联系邮箱:fuyouu#yandex.com[#换成@]投诉。我们会在15个工作日内删除。 但烦请转载时请标明出处:“本文转载于『浮游电影网』,原文地址:https://www.fuyouu.com/21929.html

评论吧骚年!

发表你的见解   

昵称*

E-mail*(建议输入,以便收到博主回复的提示邮件)

验证码*

您可以使用eMule或eMule Mod(Windows)、aMule(Win、Linux、Mac)等软件下载eD2k链接。。
eMule收藏集(.emulecollection)文件是您选中的所有链接的列表文件。eMule可以直接下载它们。
按住SHIFT键选择可以选中多个选择框。
可用文件名和大小选择器来选择文件。
文件名选择器帮您根据文件名称或后缀来选择文件。不分大小写。
符号使用:
和:空格( )、+
不包含:-
或:|
转义:一对英文引号("");
匹配开头:^
匹配结尾:$
例如:
选中所有名称中包含有“eMule”或“0.49c”字眼,但不包含有“exe”字眼的:emule|0.49c -exe
选中所有名称的开头是“eMule”,结尾是“0.49c”的:^emule 0.49c$
选中所有名称中带有“eMule 0.49c”的(必须是“eMule 0.49c”,中间没有别的字符,不能是“eMule fake 0.49c”),需要转义:"emule 0.49c"
大小选择器帮您根据文件大小选择文件。