当前位置: 首页 >> 海外电影 >> 耍宝警探[中英字幕].The.Takedown.2022.1080p.NF.WEB-DL.DDP.5.1.Atmos.HDR.H.265-CTRLWEB 5.01GB >> 正文

耍宝警探[中英字幕].The.Takedown.2022.1080p.NF.WEB-DL.DDP.5.1.Atmos.HDR.H.265-CTRLWEB 5.01GB

2022年05月07日 12:07:42     电影发布:来源于网络     电影分类:海外电影     评论(0)    

◎译 名 耍宝警探 / The Takedown / Les Gars S?rs

◎片 名 Loin du périph

◎年 代 2022

◎产 地 法国

◎类 别 剧情 / 喜剧 / 动作 / 犯罪

◎语 言 法语

◎上映日期 2022-05-06(法国网络)

◎IMDb链接 https://www.imdb.com/title/tt13822738/

◎豆瓣链接 https://movie.douban.com/subject/35410040/

◎导 演 路易斯·莱特里尔 Louis Leterrier (id:1018091)

◎编 剧 斯特凡纳·卡赞吉安 Stéphane Kazandjian (id:1321032)

◎演 员 奥玛·希 Omar Sy (id:1220507)

罗兰·拉斐特 Laurent Lafitte (id:1106952)

德米特里·斯托罗奇 Dimitri Storoge (id:1340097)

卢卡·奎因 Luka Quinn (id:1373265)

伊兹雅·海格林 Iz?a Higelin (id:1348844)

◎简 介

两名不合拍的警察十年后被迫再次搭档,来到一座四分五裂的法国小镇调查一起谋杀案。在那里,更大的阴谋浮出水面。

  1. ##### MediaInfo ######

  2. General

  3. Unique ID : 318473716392514386236765559417585275334 (0xEF97CE833D6F42D820964B19731011C6)

  4. Complete name : The.Takedown.2022.1080p.NF.WEB-DL.DDP.5.1.Atmos.HDR.H.265-CTRLWEB.mkv

  5. Format : Matroska

  6. Format version : Version 4

  7. File size : 5.01 GiB

  8. Duration : 2 h 1 min

  9. Overall bit rate : 5 907 kb/s

  10. Encoded date : UTC 2022-05-06 09:15:03

  11. Writing application : mkvmerge v65.0.0 ('Too Much') 64-bit

  12. Writing library : libebml v1.4.2 + libmatroska v1.6.4


  13. Video

  14. ID : 1

  15. Format : HEVC

  16. Format/Info : High Efficiency Video Coding

  17. Format profile : Main [email protected]@Main

  18. HDR format : SMPTE ST 2086, HDR10 compatible

  19. Codec ID : V_MPEGH/ISO/HEVC

  20. Duration : 1 h 59 min

  21. Bit rate : 5 207 kb/s

  22. Width : 1 920 pixels

  23. Height : 1 080 pixels

  24. Display aspect ratio : 16:9

  25. Frame rate mode : Constant

  26. Frame rate : 24.000 FPS

  27. Color space : YUV

  28. Chroma subsampling : 4:2:0 (Type 2)

  29. Bit depth : 10 bits

  30. Bits/(Pixel*Frame) : 0.105

  31. Stream size : 4.35 GiB (87%)

  32. Language : French

  33. Default : Yes

  34. Forced : No

  35. Color range : Limited

  36. Color primaries : BT.2020

  37. Transfer characteristics : PQ

  38. Matrix coefficients : BT.2020 non-constant

  39. Mastering display color primaries : Display P3

  40. Mastering display luminance : min: 0.0001 cd/m2, max: 1000 cd/m2

  41. Maximum Content Light Level : 1979 cd/m2

  42. Maximum Frame-Average Light Level : 463 cd/m2


  43. Audio

  44. ID : 2

  45. Format : E-AC-3 JOC

  46. Format/Info : Enhanced AC-3 with Joint Object Coding

  47. Commercial name : Dolby Digital Plus with Dolby Atmos

  48. Codec ID : A_EAC3

  49. Duration : 2 h 1 min

  50. Bit rate mode : Constant

  51. Bit rate : 768 kb/s

  52. Channel(s) : 6 channels

  53. Channel layout : L R C LFE Ls Rs

  54. Sampling rate : 48.0 kHz

  55. Frame rate : 31.250 FPS (1536 SPF)

  56. Compression mode : Lossy

  57. Stream size : 667 MiB (13%)

  58. Language : French

  59. Service kind : Complete Main

  60. Default : Yes

  61. Forced : No

  62. Complexity index : 16

  63. Number of dynamic objects : 15

  64. Bed channel count : 1 channel

  65. Bed channel configuration : LFE


  66. Text #1

  67. ID : 3

  68. Format : UTF-8

  69. Codec ID : S_TEXT/UTF8

  70. Codec ID/Info : UTF-8 Plain Text

  71. Duration : 27 s 84 ms

  72. Bit rate : 76 b/s

  73. Count of elements : 6

  74. Stream size : 260 Bytes (0%)

  75. Title : Forced

  76. Language : French

  77. Default : Yes

  78. Forced : Yes


  79. Text #2

  80. ID : 4

  81. Format : UTF-8

  82. Codec ID : S_TEXT/UTF8

  83. Codec ID/Info : UTF-8 Plain Text

  84. Duration : 1 h 54 min

  85. Bit rate : 77 b/s

  86. Count of elements : 1930

  87. Stream size : 65.4 KiB (0%)

  88. Title : SDH

  89. Language : French

  90. Default : No

  91. Forced : No


  92. Text #3

  93. ID : 5

  94. Format : UTF-8

  95. Codec ID : S_TEXT/UTF8

  96. Codec ID/Info : UTF-8 Plain Text

  97. Duration : 1 h 54 min

  98. Bit rate : 71 b/s

  99. Count of elements : 1751

  100. Stream size : 59.6 KiB (0%)

  101. Language : French

  102. Default : No

  103. Forced : No


  104. Text #4

  105. ID : 6

  106. Format : UTF-8

  107. Codec ID : S_TEXT/UTF8

  108. Codec ID/Info : UTF-8 Plain Text

  109. Duration : 1 h 54 min

  110. Bit rate : 113 b/s

  111. Count of elements : 1839

  112. Stream size : 95.7 KiB (0%)

  113. Language : Arabic

  114. Default : No

  115. Forced : No


  116. Text #5

  117. ID : 7

  118. Format : UTF-8

  119. Codec ID : S_TEXT/UTF8

  120. Codec ID/Info : UTF-8 Plain Text

  121. Duration : 1 h 59 min

  122. Bit rate : 57 b/s

  123. Count of elements : 1808

  124. Stream size : 50.1 KiB (0%)

  125. Language : Catalan

  126. Default : No

  127. Forced : No


  128. Text #6

  129. ID : 8

  130. Format : UTF-8

  131. Codec ID : S_TEXT/UTF8

  132. Codec ID/Info : UTF-8 Plain Text

  133. Duration : 1 h 59 min

  134. Bit rate : 58 b/s

  135. Count of elements : 1815

  136. Stream size : 51.5 KiB (0%)

  137. Language : Czech

  138. Default : No

  139. Forced : No


  140. Text #7

  141. ID : 9

  142. Format : UTF-8

  143. Codec ID : S_TEXT/UTF8

  144. Codec ID/Info : UTF-8 Plain Text

  145. Duration : 1 h 59 min

  146. Bit rate : 54 b/s

  147. Count of elements : 1747

  148. Stream size : 47.5 KiB (0%)

  149. Language : Danish

  150. Default : No

  151. Forced : No


  152. Text #8

  153. ID : 10

  154. Format : UTF-8

  155. Codec ID : S_TEXT/UTF8

  156. Codec ID/Info : UTF-8 Plain Text

  157. Duration : 1 h 59 min

  158. Bit rate : 58 b/s

  159. Count of elements : 1835

  160. Stream size : 51.3 KiB (0%)

  161. Language : German

  162. Default : No

  163. Forced : No


  164. Text #9

  165. ID : 11

  166. Format : UTF-8

  167. Codec ID : S_TEXT/UTF8

  168. Codec ID/Info : UTF-8 Plain Text

  169. Duration : 1 h 59 min

  170. Bit rate : 97 b/s

  171. Count of elements : 1835

  172. Stream size : 84.9 KiB (0%)

  173. Language : Greek

  174. Default : No

  175. Forced : No


  176. Text #10

  177. ID : 12

  178. Format : UTF-8

  179. Codec ID : S_TEXT/UTF8

  180. Codec ID/Info : UTF-8 Plain Text

  181. Duration : 1 h 54 min

  182. Bit rate : 89 b/s

  183. Count of elements : 2256

  184. Stream size : 75.6 KiB (0%)

  185. Title : SDH

  186. Language : English

  187. Default : No

  188. Forced : No


  189. Text #11

  190. ID : 13

  191. Format : UTF-8

  192. Codec ID : S_TEXT/UTF8

  193. Codec ID/Info : UTF-8 Plain Text

  194. Duration : 1 h 54 min

  195. Bit rate : 64 b/s

  196. Count of elements : 1859

  197. Stream size : 54.5 KiB (0%)

  198. Language : English

  199. Default : No

  200. Forced : No


  201. Text #12

  202. ID : 14

  203. Format : UTF-8

  204. Codec ID : S_TEXT/UTF8

  205. Codec ID/Info : UTF-8 Plain Text

  206. Duration : 1 h 54 min

  207. Bit rate : 77 b/s

  208. Count of elements : 1978

  209. Stream size : 65.3 KiB (0%)

  210. Language : English

  211. Default : No

  212. Forced : No


  213. Text #13

  214. ID : 15

  215. Format : UTF-8

  216. Codec ID : S_TEXT/UTF8

  217. Codec ID/Info : UTF-8 Plain Text

  218. Duration : 1 h 59 min

  219. Bit rate : 59 b/s

  220. Count of elements : 1822

  221. Stream size : 51.9 KiB (0%)

  222. Language : Spanish

  223. Default : No

  224. Forced : No


  225. Text #14

  226. ID : 16

  227. Format : UTF-8

  228. Codec ID : S_TEXT/UTF8

  229. Codec ID/Info : UTF-8 Plain Text

  230. Duration : 1 h 59 min

  231. Bit rate : 60 b/s

  232. Count of elements : 1804

  233. Stream size : 52.9 KiB (0%)

  234. Title : Europe

  235. Language : Spanish

  236. Default : No

  237. Forced : No


  238. Text #15

  239. ID : 17

  240. Format : UTF-8

  241. Codec ID : S_TEXT/UTF8

  242. Codec ID/Info : UTF-8 Plain Text

  243. Duration : 1 h 59 min

  244. Bit rate : 58 b/s

  245. Count of elements : 1463

  246. Stream size : 51.2 KiB (0%)

  247. Language : Finnish

  248. Default : No

  249. Forced : No


  250. Text #16

  251. ID : 18

  252. Format : UTF-8

  253. Codec ID : S_TEXT/UTF8

  254. Codec ID/Info : UTF-8 Plain Text

  255. Duration : 1 h 59 min

  256. Bit rate : 57 b/s

  257. Count of elements : 1834

  258. Stream size : 50.5 KiB (0%)

  259. Language : Galician

  260. Default : No

  261. Forced : No


  262. Text #17

  263. ID : 19

  264. Format : UTF-8

  265. Codec ID : S_TEXT/UTF8

  266. Codec ID/Info : UTF-8 Plain Text

  267. Duration : 1 h 59 min

  268. Bit rate : 103 b/s

  269. Count of elements : 1827

  270. Stream size : 90.8 KiB (0%)

  271. Language : Hebrew

  272. Default : No

  273. Forced : No


  274. Text #18

  275. ID : 20

  276. Format : UTF-8

  277. Codec ID : S_TEXT/UTF8

  278. Codec ID/Info : UTF-8 Plain Text

  279. Duration : 1 h 59 min

  280. Bit rate : 50 b/s

  281. Count of elements : 1808

  282. Stream size : 44.4 KiB (0%)

  283. Language : Croatian

  284. Default : No

  285. Forced : No


  286. Text #19

  287. ID : 21

  288. Format : UTF-8

  289. Codec ID : S_TEXT/UTF8

  290. Codec ID/Info : UTF-8 Plain Text

  291. Duration : 1 h 59 min

  292. Bit rate : 64 b/s

  293. Count of elements : 1640

  294. Stream size : 55.9 KiB (0%)

  295. Language : Hungarian

  296. Default : No

  297. Forced : No


  298. Text #20

  299. ID : 22

  300. Format : UTF-8

  301. Codec ID : S_TEXT/UTF8

  302. Codec ID/Info : UTF-8 Plain Text

  303. Duration : 1 h 59 min

  304. Bit rate : 59 b/s

  305. Count of elements : 1851

  306. Stream size : 52.1 KiB (0%)

  307. Language : Indonesian

  308. Default : No

  309. Forced : No


  310. Text #21

  311. ID : 23

  312. Format : UTF-8

  313. Codec ID : S_TEXT/UTF8

  314. Codec ID/Info : UTF-8 Plain Text

  315. Duration : 1 h 59 min

  316. Bit rate : 57 b/s

  317. Count of elements : 1784

  318. Stream size : 49.8 KiB (0%)

  319. Language : Italian

  320. Default : No

  321. Forced : No


  322. Text #22

  323. ID : 24

  324. Format : UTF-8

  325. Codec ID : S_TEXT/UTF8

  326. Codec ID/Info : UTF-8 Plain Text

  327. Duration : 1 h 54 min

  328. Bit rate : 62 b/s

  329. Count of elements : 2093

  330. Stream size : 52.6 KiB (0%)

  331. Language : Japanese

  332. Default : No

  333. Forced : No


  334. Text #23

  335. ID : 25

  336. Format : UTF-8

  337. Codec ID : S_TEXT/UTF8

  338. Codec ID/Info : UTF-8 Plain Text

  339. Duration : 1 h 59 min

  340. Bit rate : 79 b/s

  341. Count of elements : 1897

  342. Stream size : 69.6 KiB (0%)

  343. Language : Korean

  344. Default : No

  345. Forced : No


  346. Text #24

  347. ID : 26

  348. Format : UTF-8

  349. Codec ID : S_TEXT/UTF8

  350. Codec ID/Info : UTF-8 Plain Text

  351. Duration : 1 h 59 min

  352. Bit rate : 57 b/s

  353. Count of elements : 1827

  354. Stream size : 50.0 KiB (0%)

  355. Language : Malay

  356. Default : No

  357. Forced : No


  358. Text #25

  359. ID : 27

  360. Format : UTF-8

  361. Codec ID : S_TEXT/UTF8

  362. Codec ID/Info : UTF-8 Plain Text

  363. Duration : 1 h 59 min

  364. Bit rate : 54 b/s

  365. Count of elements : 1684

  366. Stream size : 47.9 KiB (0%)

  367. Language : Norwegian Bokmal

  368. Default : No

  369. Forced : No


  370. Text #26

  371. ID : 28

  372. Format : UTF-8

  373. Codec ID : S_TEXT/UTF8

  374. Codec ID/Info : UTF-8 Plain Text

  375. Duration : 1 h 59 min

  376. Bit rate : 57 b/s

  377. Count of elements : 1608

  378. Stream size : 50.6 KiB (0%)

  379. Language : Dutch

  380. Default : No

  381. Forced : No


  382. Text #27

  383. ID : 29

  384. Format : UTF-8

  385. Codec ID : S_TEXT/UTF8

  386. Codec ID/Info : UTF-8 Plain Text

  387. Duration : 1 h 59 min

  388. Bit rate : 56 b/s

  389. Count of elements : 1837

  390. Stream size : 48.9 KiB (0%)

  391. Language : Polish

  392. Default : No

  393. Forced : No


  394. Text #28

  395. ID : 30

  396. Format : UTF-8

  397. Codec ID : S_TEXT/UTF8

  398. Codec ID/Info : UTF-8 Plain Text

  399. Duration : 1 h 59 min

  400. Bit rate : 61 b/s

  401. Count of elements : 1781

  402. Stream size : 54.1 KiB (0%)

  403. Language : Portuguese

  404. Default : No

  405. Forced : No


  406. Text #29

  407. ID : 31

  408. Format : UTF-8

  409. Codec ID : S_TEXT/UTF8

  410. Codec ID/Info : UTF-8 Plain Text

  411. Duration : 1 h 59 min

  412. Bit rate : 58 b/s

  413. Count of elements : 1835

  414. Stream size : 50.8 KiB (0%)

  415. Title : Brazil

  416. Language : Portuguese

  417. Default : No

  418. Forced : No


  419. Text #30

  420. ID : 32

  421. Format : UTF-8

  422. Codec ID : S_TEXT/UTF8

  423. Codec ID/Info : UTF-8 Plain Text

  424. Duration : 1 h 59 min

  425. Bit rate : 66 b/s

  426. Count of elements : 1830

  427. Stream size : 58.4 KiB (0%)

  428. Language : Romanian

  429. Default : No

  430. Forced : No


  431. Text #31

  432. ID : 33

  433. Format : UTF-8

  434. Codec ID : S_TEXT/UTF8

  435. Codec ID/Info : UTF-8 Plain Text

  436. Duration : 1 h 59 min

  437. Bit rate : 94 b/s

  438. Count of elements : 1842

  439. Stream size : 82.5 KiB (0%)

  440. Language : Russian

  441. Default : No

  442. Forced : No


  443. Text #32

  444. ID : 34

  445. Format : UTF-8

  446. Codec ID : S_TEXT/UTF8

  447. Codec ID/Info : UTF-8 Plain Text

  448. Duration : 1 h 59 min

  449. Bit rate : 56 b/s

  450. Count of elements : 1660

  451. Stream size : 49.5 KiB (0%)

  452. Language : Swedish

  453. Default : No

  454. Forced : No


  455. Text #33

  456. ID : 35

  457. Format : UTF-8

  458. Codec ID : S_TEXT/UTF8

  459. Codec ID/Info : UTF-8 Plain Text

  460. Duration : 1 h 59 min

  461. Bit rate : 155 b/s

  462. Count of elements : 1867

  463. Stream size : 136 KiB (0%)

  464. Language : Thai

  465. Default : No

  466. Forced : No


  467. Text #34

  468. ID : 36

  469. Format : UTF-8

  470. Codec ID : S_TEXT/UTF8

  471. Codec ID/Info : UTF-8 Plain Text

  472. Duration : 1 h 59 min

  473. Bit rate : 61 b/s

  474. Count of elements : 1756

  475. Stream size : 54.1 KiB (0%)

  476. Language : Turkish

  477. Default : No

  478. Forced : No


  479. Text #35

  480. ID : 37

  481. Format : UTF-8

  482. Codec ID : S_TEXT/UTF8

  483. Codec ID/Info : UTF-8 Plain Text

  484. Duration : 1 h 59 min

  485. Bit rate : 92 b/s

  486. Count of elements : 1814

  487. Stream size : 81.1 KiB (0%)

  488. Language : Ukrainian

  489. Default : No

  490. Forced : No


  491. Text #36

  492. ID : 38

  493. Format : UTF-8

  494. Codec ID : S_TEXT/UTF8

  495. Codec ID/Info : UTF-8 Plain Text

  496. Duration : 1 h 59 min

  497. Bit rate : 84 b/s

  498. Count of elements : 1673

  499. Stream size : 73.9 KiB (0%)

  500. Language : Vietnamese

  501. Default : No

  502. Forced : No


  503. Text #37

  504. ID : 39

  505. Format : UTF-8

  506. Codec ID : S_TEXT/UTF8

  507. Codec ID/Info : UTF-8 Plain Text

  508. Duration : 1 h 59 min

  509. Bit rate : 72 b/s

  510. Count of elements : 1854

  511. Stream size : 63.2 KiB (0%)

  512. Title : Simplified

  513. Language : Chinese

  514. Default : No

  515. Forced : No


  516. Text #38

  517. ID : 40

  518. Format : UTF-8

  519. Codec ID : S_TEXT/UTF8

  520. Codec ID/Info : UTF-8 Plain Text

  521. Duration : 1 h 59 min

  522. Bit rate : 63 b/s

  523. Count of elements : 1856

  524. Stream size : 55.9 KiB (0%)

  525. Title : Traditional

  526. Language : Chinese

  527. Default : No

  528. Forced : No




复制代码



文件下载


除非特别注明,本文『耍宝警探[中英字幕].The.Takedown.2022.1080p.NF.WEB-DL.DDP.5.1.Atmos.HDR.H.265-CTRLWEB 5.01GB』来源于互联网机器人自动抓取,非本站原创。 浮游电影网不对本文拥有版权,如有侵犯,请联系邮箱:fuyouu#yandex.com[#换成@]投诉。我们会在15个工作日内删除。 但烦请转载时请标明出处:“本文转载于『浮游电影网』,原文地址:https://www.fuyouu.com/21928.html

评论吧骚年!

发表你的见解   

昵称*

E-mail*(建议输入,以便收到博主回复的提示邮件)

验证码*

您可以使用eMule或eMule Mod(Windows)、aMule(Win、Linux、Mac)等软件下载eD2k链接。。
eMule收藏集(.emulecollection)文件是您选中的所有链接的列表文件。eMule可以直接下载它们。
按住SHIFT键选择可以选中多个选择框。
可用文件名和大小选择器来选择文件。
文件名选择器帮您根据文件名称或后缀来选择文件。不分大小写。
符号使用:
和:空格( )、+
不包含:-
或:|
转义:一对英文引号("");
匹配开头:^
匹配结尾:$
例如:
选中所有名称中包含有“eMule”或“0.49c”字眼,但不包含有“exe”字眼的:emule|0.49c -exe
选中所有名称的开头是“eMule”,结尾是“0.49c”的:^emule 0.49c$
选中所有名称中带有“eMule 0.49c”的(必须是“eMule 0.49c”,中间没有别的字符,不能是“eMule fake 0.49c”),需要转义:"emule 0.49c"
大小选择器帮您根据文件大小选择文件。