当前位置: 首页 >> 港台电影 >> 独臂刀[国语音轨/简繁英字幕].The.One-Armed.Swordsman.1967.BluRay.1080p.DTS-HD.MA.2.0.x265.10bit-ALT 8.70GB >> 正文

独臂刀[国语音轨/简繁英字幕].The.One-Armed.Swordsman.1967.BluRay.1080p.DTS-HD.MA.2.0.x265.10bit-ALT 8.70GB

2022年05月07日 12:06:27     电影发布:来源于网络     电影分类:港台电影     评论(0)    

◎译 名 独臂刀 / The One-Armed Swordsman

◎片 名 獨臂刀

◎年 代 1967

◎产 地 中国香港

◎类 别 剧情 / 动作 / 武侠 / 古装

◎语 言 汉语普通话

◎上映日期 1967-07-26(中国香港)

◎IMDb链接 https://www.imdb.com/title/tt0061597/

◎豆瓣评分 7.4/10 (7441人评价)

◎豆瓣链接 https://movie.douban.com/subject/1297979/

◎片 长 111分钟

◎导 演 张彻 Cheh Chang (id:1007232)

◎编 剧 张彻 Cheh Chang (id:1007232)

倪匡 Kuang Ni (id:1275879)

◎演 员 王羽 Yu Wang (id:1002908)

潘迎紫 Yin Tze Pan (id:1274863)

焦姣 Chiao Chiao (id:1046117)

田丰 Feng Tien (id:1019621)

陈燕燕 Yanyan Chen (id:1017182)

徐松鹤 Sung-Hao Hsu (id:1416277)

赵雄 Chiao Hsiung (id:1321595)

袁祥仁 Cheung-Yan Yuen (id:1301574)

唐佳 Chia Tang (id:1015544)

金军 Chun Chin (id:1397190)

金天柱 Tien-Chu Chin (id:1417197)

江龙 Long Jiang (id:1319652)

杨柏尘 Pak-Chan Yeung (id:1434741)

黎恩 Lai Yan (id:1434232)

黄梅 Wong Mei (id:1434231)

陈绍佳 Shao-Chia Chen (id:1364463)

周小来 Siu Loi Chow (id:1416276)

徐庆春 Chui Hing-Chun (id:1430597)

王光裕 Kuang Yu Wang (id:1417075)

谭宝 Bo Tam (id:1396235)

曾楚霖 Choh-Lam Tsang (id:1341398)

樊梅生 Mei Sheng Fan (id:1088045)

杨志卿 Chih-Ching Yang (id:1068607)

谷峰 Feng Ku (id:1054239)

解元 Yuan Chieh (id:1034024)

火星 Mars (id:1033056)

黄宗迅 Chung-Hsin Huang (id:1101334)

任世官 Shi-Kwan Yen (id:1165667)

洪流 Liu Hung (id:1219808)

陈全 Chuan Chen (id:1326418)

郑雷 Lei Cheng (id:1330620)

张佩山 Pei-Shan Chang (id:1331539)

文秀 Hsiu Wen (id:1324577)

郝履仁 Li Jen Ho (id:1334345)

刘家良 Kar-Leung Lau (id:1275361)

刘家荣 Chia Yung Liu (id:1290162)

邵仁枚 Runme Shaw (id:1319311)

王福龄 Fu-ling Wang (id:1300395)

阮曾三 Zengsan Ruan (id:1401570)

姜兴隆 Hsing-lung Chiang (id:1280639)

陈其锐 Qirui Chen (id:1346518)

陈景森 Ching-Shen Chen (id:1280565)

方圆 Yuen Fong (id:1346427)

刘家良 Kar-Leung Lau (id:1275361)

王永华 Yung-Hua Wang (id:1300416)

◎简 介

大侠齐如丰将为救他而身亡的仆人方诚的儿子方刚(王羽)抚养成人后,欲立其为掌门人,此举引来方刚师兄的嫉妒。追求方刚不成的齐如丰的女儿齐佩联合师兄与方刚比武,却失手砍断方刚右臂,方刚负伤逃离齐家。

只剩左臂的方刚被少女小蛮(焦姣)救下后一度意志消沉,但终在小蛮的鼓励下重获信心,凭借小蛮父亲留下的秘籍《左手图谱》练成“左手神刀”绝技。齐如丰的仇家笑面二郎和长臂神魔将齐的弟子系数杀尽,并囚禁了齐佩和齐如丰。顾及师恩,方刚决意不计前嫌助齐家一力。

  1. ##### MediaInfo ######

  2. General

  3. Unique ID : 82866608088883094508803337213232365721 (0x3E5787378371FF00F11B45F669C14099)

  4. Complete name : The.One-Armed.Swordsman.1967.BluRay.1080p.DTS-HD.MA.2.0.x265.10bit-ALT.mkv

  5. Format : Matroska

  6. Format version : Version 4

  7. File size : 8.70 GiB

  8. Duration : 1 h 56 min

  9. Overall bit rate mode : Variable

  10. Overall bit rate : 10.7 Mb/s

  11. Encoded date : UTC 2022-05-06 11:50:24

  12. Writing application : mkvmerge v49.0.0 ('Sick Of Losing Soulmates') 64-bit

  13. Writing library : libebml v1.4.0 + libmatroska v1.6.1


  14. Video

  15. ID : 1

  16. Format : HEVC

  17. Format/Info : High Efficiency Video Coding

  18. Format profile : Main [email protected]@High

  19. Codec ID : V_MPEGH/ISO/HEVC

  20. Duration : 1 h 56 min

  21. Bit rate : 9 381 kb/s

  22. Width : 1 920 pixels

  23. Height : 796 pixels

  24. Display aspect ratio : 2.40:1

  25. Frame rate mode : Constant

  26. Frame rate : 23.976 (24000/1001/53354) FPS

  27. Color space : YUV

  28. Chroma subsampling : 4:2:0

  29. Bit depth : 10 bits

  30. Bits/(Pixel*Frame) : 0.256

  31. Stream size : 7.60 GiB (87%)

  32. Title : HEVC, [email protected]@High, 24/1.001 fps @ 9380 kbps

  33. Writing library : x265 3.5+36-1f2c8da77:[Windows][GCC 11.2.0][64 bit] 10bit

  34. Encoding settings : cpuid=533541111039 / frame-threads=4 / numa-pools=16 / wpp / no-pmode / no-pme / no-psnr / no-ssim / log-level=2 / input-csp=1 / input-res=1920x796 / interlace=0 / total-frames=166903 / level-idc=51 / high-tier=1 / uhd-bd=0 / ref=5 / no-allow-non-conformance / no-repeat-headers / annexb / no-aud / no-eob / no-eos / no-hrd / info / hash=0 / no-temporal-layers / open-gop / min-keyint=24 / keyint=240 / gop-lookahead=0 / bframes=6 / b-adapt=2 / b-pyramid / bframe-bias=0 / rc-lookahead=40 / lookahead-slices=0 / NTMzNTQ=uuDQuD2mJt9fsCf / scenecut=40 / no-hist-scenecut / radl=0 / no-splice / no-intra-refresh / ctu=32 / min-cu-size=8 / no-rect / no-amp / max-tu-size=32 / tu-inter-depth=3 / tu-intra-depth=3 / limit-tu=4 / rdoq-level=2 / dynamic-rd=0.00 / no-ssim-rd / signhide / no-tskip / nr-intra=0 / nr-inter=0 / no-constrained-intra / no-strong-intra-smoothing / max-merge=4 / limit-refs=1 / limit-modes / me=3 / subme=4 / merange=25 / temporal-mvp / no-frame-dup / no-hme / weightp / weightb / no-analyze-src-pics / deblock=-3:-3 / no-sao / no-sao-non-deblock / rd=6 / selective-sao=0 / no-early-skip / rskip / no-fast-intra / no-tskip-fast / no-cu-lossless / b-intra / no-splitrd-skip / rdpenalty=0 / psy-rd=2.00 / psy-rdoq=1.00 / no-rd-refine / no-lossless / cbqpoffs=-2 / crqpoffs=-2 / rc=crf / crf=17.0 / qcomp=0.65 / qpstep=4 / stats-write=0 / stats-read=0 / vbv-maxrate=80000 / vbv-bufsize=80000 / vbv-init=0.9 / min-vbv-fullness=50.0 / max-vbv-fullness=80.0 / crf-max=0.0 / crf-min=0.0 / ipratio=1.40 / pbratio=1.30 / aq-mode=2 / aq-strength=0.85 / cutree / zone-count=0 / no-strict-cbr / qg-size=32 / no-rc-grain / qpmax=69 / qpmin=0 / no-const-vbv / sar=1 / overscan=0 / videoformat=5 / range=0 / colorprim=1 / transfer=1 / colormatrix=1 / chromaloc=0 / display-window=0 / cll=0,0 / min-luma=0 / max-luma=1023 / log2-max-poc-lsb=8 / vui-timing-info / vui-hrd-info / slices=1 / no-opt-qp-pps / no-opt-ref-list-length-pps / no-multi-pass-opt-rps / scenecut-bias=0.05 / hist-threshold=0.03 / no-opt-cu-delta-qp / no-aq-motion / no-hdr10 / no-hdr10-opt / no-dhdr10-opt / no-idr-recovery-sei / analysis-reuse-level=0 / analysis-save-reuse-level=0 / analysis-load-reuse-level=0 / scale-factor=0 / refine-intra=0 / refine-inter=0 / refine-mv=1 / refine-ctu-distortion=0 / no-limit-sao / ctu-info=0 / no-lowpass-dct / refine-analysis-type=0 / copy-pic=1 / max-ausize-factor=1.0 / no-dynamic-refine / no-single-sei / no-hevc-aq / no-svt / no-field / qp-adaptation-range=1.00 / scenecut-aware-qp=0conformance-window-offsets / right=0 / bottom=0 / NTMzNTQ= / decoder-max-rate=0 / no-vbv-live-multi-pass

  35. Language : English

  36. Default : Yes

  37. Forced : No

  38. Color range : Limited

  39. Color primaries : BT.709

  40. Transfer characteristics : BT.709

  41. Matrix coefficients : BT.709


  42. Audio

  43. ID : 2

  44. Format : DTS XLL

  45. Format/Info : Digital Theater Systems

  46. Commercial name : DTS-HD Master Audio

  47. Codec ID : A_DTS

  48. Duration : 1 h 56 min

  49. Bit rate mode : Variable

  50. Bit rate : 1 263 kb/s

  51. Channel(s) : 2 channels

  52. Channel layout : L R

  53. Sampling rate : 48.0 kHz

  54. Frame rate : 93.750 FPS (512 SPF)

  55. Bit depth : 24 bits

  56. Compression mode : Lossless

  57. Stream size : 1.02 GiB (12%)

  58. Title : Mandarin DTS-HD Master Audio 2.0 @ 1264 kbps

  59. Language : Chinese

  60. Default : Yes

  61. Forced : No


  62. Text #1

  63. ID : 3

  64. Format : PGS

  65. Codec ID : S_HDMV/PGS

  66. Codec ID/Info : Picture based subtitle format used on BDs/HD-DVDs

  67. Duration : 1 h 53 min

  68. Bit rate : 33.1 kb/s

  69. Count of elements : 2172

  70. Stream size : 26.8 MiB (0%)

  71. Title : Eng/SUP

  72. Language : English

  73. Default : No

  74. Forced : No


  75. Text #2

  76. ID : 4

  77. Format : PGS

  78. Codec ID : S_HDMV/PGS

  79. Codec ID/Info : Picture based subtitle format used on BDs/HD-DVDs

  80. Duration : 1 h 53 min

  81. Bit rate : 26.5 kb/s

  82. Count of elements : 2005

  83. Stream size : 21.5 MiB (0%)

  84. Title : Chs/SUP 简体

  85. Language : Chinese

  86. Default : Yes

  87. Forced : No


  88. Text #3

  89. ID : 5

  90. Format : PGS

  91. Codec ID : S_HDMV/PGS

  92. Codec ID/Info : Picture based subtitle format used on BDs/HD-DVDs

  93. Duration : 1 h 53 min

  94. Bit rate : 27.4 kb/s

  95. Count of elements : 2005

  96. Stream size : 22.2 MiB (0%)

  97. Title : Cht/SUP 繁体

  98. Language : Chinese

  99. Default : No

  100. Forced : No


  101. Menu

  102. 00:00:00.000 : en:第 01 章

  103. 00:19:57.196 : en:第 02 章

  104. 00:32:28.405 : en:第 03 章

  105. 00:46:43.259 : en:第 04 章

  106. 01:02:47.347 : en:第 05 章

  107. 01:19:26.762 : en:第 06 章

  108. 01:35:06.284 : en:第 07 章

  109. 01:46:29.842 : en:第 08 章




复制代码



文件下载


除非特别注明,本文『独臂刀[国语音轨/简繁英字幕].The.One-Armed.Swordsman.1967.BluRay.1080p.DTS-HD.MA.2.0.x265.10bit-ALT 8.70GB』来源于互联网机器人自动抓取,非本站原创。 浮游电影网不对本文拥有版权,如有侵犯,请联系邮箱:fuyouu#yandex.com[#换成@]投诉。我们会在15个工作日内删除。 但烦请转载时请标明出处:“本文转载于『浮游电影网』,原文地址:https://www.fuyouu.com/21927.html

评论吧骚年!

发表你的见解   

昵称*

E-mail*(建议输入,以便收到博主回复的提示邮件)

验证码*

您可以使用eMule或eMule Mod(Windows)、aMule(Win、Linux、Mac)等软件下载eD2k链接。。
eMule收藏集(.emulecollection)文件是您选中的所有链接的列表文件。eMule可以直接下载它们。
按住SHIFT键选择可以选中多个选择框。
可用文件名和大小选择器来选择文件。
文件名选择器帮您根据文件名称或后缀来选择文件。不分大小写。
符号使用:
和:空格( )、+
不包含:-
或:|
转义:一对英文引号("");
匹配开头:^
匹配结尾:$
例如:
选中所有名称中包含有“eMule”或“0.49c”字眼,但不包含有“exe”字眼的:emule|0.49c -exe
选中所有名称的开头是“eMule”,结尾是“0.49c”的:^emule 0.49c$
选中所有名称中带有“eMule 0.49c”的(必须是“eMule 0.49c”,中间没有别的字符,不能是“eMule fake 0.49c”),需要转义:"emule 0.49c"
大小选择器帮您根据文件大小选择文件。