当前位置: 首页 >> 日韩电影 >> 魔幻时刻[简繁英字幕].The.Magic.Hour.2008.BluRay.1080p.DTS-HD.MA5.1.x265.10bit-ALT 10.28GB >> 正文

魔幻时刻[简繁英字幕].The.Magic.Hour.2008.BluRay.1080p.DTS-HD.MA5.1.x265.10bit-ALT 10.28GB

2022年05月07日 12:04:59     电影发布:来源于网络     电影分类:日韩电影     评论(0)    

◎译 名 魔幻时刻 / THE魔法时刻 / 黑帮有个荷里活(港) / The Magic Hour

◎片 名 ザ?マジックアワー

◎年 代 2008

◎产 地 日本

◎类 别 喜剧

◎语 言 日语

◎上映日期 2008-06-07

◎IMDb链接 https://www.imdb.com/title/tt1077089/

◎豆瓣评分 8.1/10 (41246人评价)

◎豆瓣链接 https://movie.douban.com/subject/2157507/

◎片 长 136分钟

◎导 演 三谷幸喜 K?ki Mitani (id:1010252)

◎编 剧 三谷幸喜 K?ki Mitani (id:1010252)

◎演 员 佐藤浩市 K?ichi Sat? (id:1037432)

妻夫木聪 Satoshi Tsumabuki (id:1037028)

深津绘里 Eri Fukatsu (id:1014844)

绫濑遥 Haruka Ayase (id:1035655)

西田敏行 Toshiyuki Nishida (id:1041742)

小日向文世 Fumiyo Kohinata (id:1009219)

寺岛进 Susumu Terajima (id:1041631)

香川照之 Teruyuki Kagawa (id:1037221)

近藤芳正 Yoshimasa Kond? (id:1105724)

山本耕史 K?ji Yamamoto (id:1161267)

市川昆 Kon Ichikawa (id:1041592)

中井贵一 Kiichi Nakai (id:1050774)

天海祐希 Yuki Amami (id:1059553)

唐泽寿明 Toshiaki Karasawa (id:1019420)

谷原章介 Sh?suke Tanihara (id:1159106)

铃木京香 Kyoka Suzuki (id:1019486)

寺胁康文 Yasufumi Terawaki (id:1033952)

堀部圭亮 Keisuke Horibe (id:1275817)

伊吹吾郎 Goro Ibuki (id:1017255)

香取慎吾 Shingo Katori (id:1005418)

树木希林 Kirin Kiki (id:1014853)

奥田达士 Tatsuhito Okuda (id:1026143)

户田惠子 Keiko Toda (id:1051741)

浅野和之 Kazuyuki Asano (id:1006871)

阿南健治 Kenji Anan (id:1034042)

榎木兵卫 Hyoei Enoki (id:1034642)

荻野清子 Kiyoko Ogino (id:1310860)

山本英夫 Hideo Yamamoto (id:1301392)

上野聪一 Soichi Ueno (id:1007781)

种田阳平 Yohei Taneda (id:1298897)

大屋哲男 Tetsuo Ohya (id:1308210)

◎简 介

黑帮小喽罗备后登(妻夫木聪 饰)与老大天盐幸之助(西田敏行 饰)的女人高千穗玛丽(深津惠里 饰)有染,惹来杀身之祸。为保性命,备后不得不接受寻找传奇杀手富坚的任务。走投无路之时,他突发妙策,假扮成一名正在筹拍黑帮电影的导演,邀请多年来辛苦打拼却功不成名不就的小演员村田大树(佐藤浩市 饰)出演杀手富坚。

不知就里的村田和有些秀逗的经纪人长谷川(小日向文世 饰)随备后来至黑帮云集的港口加护,开始了自己紧张而刺激的电影拍摄之旅……

◎获奖情况 (共11项)

第32届日本电影学院奖 (2009)

最佳影片(提名)

最佳导演(提名)

└──三谷幸喜 (id:1010252)

最佳编剧(提名)

└──三谷幸喜 (id:1010252)

最佳男主角(提名)

└──佐藤浩市 (id:1037432)

最佳配乐(提名)

└──荻野清子 (id:1310860)

最佳美术指导(提名)

└──种田阳平 (id:1298897)

最佳录音(提名)

└──瀬川彻夫 (id:1297144)

最佳剪辑(提名)

└──上野聪一 (id:1007781)

第3届亚洲电影大奖 (2009)

最佳女主角(提名)

└──深津绘里 (id:1014844)

最佳编剧(提名)

└──三谷幸喜 (id:1010252)

最佳美术指导(提名)

└──种田阳平 (id:1298897)

  1. ##### MediaInfo ######

  2. General

  3. Unique ID : 240380239080887843343844651491612714770 (0xB4D78CCFFA3C0C682AAF5142EB706712)

  4. Complete name : The.Magic.Hour.2008.BluRay.1080p.DTS-HD.MA5.1.x265.10bit-ALT.mkv

  5. Format : Matroska

  6. Format version : Version 4

  7. File size : 10.3 GiB

  8. Duration : 2 h 17 min

  9. Overall bit rate mode : Variable

  10. Overall bit rate : 10.7 Mb/s

  11. Encoded date : UTC 2022-05-06 11:26:56

  12. Writing application : mkvmerge v49.0.0 ('Sick Of Losing Soulmates') 64-bit

  13. Writing library : libebml v1.4.0 + libmatroska v1.6.1


  14. Video

  15. ID : 1

  16. Format : HEVC

  17. Format/Info : High Efficiency Video Coding

  18. Format profile : Main [email protected]@High

  19. Codec ID : V_MPEGH/ISO/HEVC

  20. Duration : 2 h 17 min

  21. Bit rate : 8 641 kb/s

  22. Width : 1 920 pixels

  23. Height : 802 pixels

  24. Display aspect ratio : 2.40:1

  25. Frame rate mode : Constant

  26. Frame rate : 23.976 (24000/1001/53354) FPS

  27. Color space : YUV

  28. Chroma subsampling : 4:2:0

  29. Bit depth : 10 bits

  30. Bits/(Pixel*Frame) : 0.234

  31. Stream size : 8.27 GiB (81%)

  32. Title : HEVC, [email protected]@High, 24/1.001 fps @ 8640 kbps

  33. Writing library : x265 3.5+36-1f2c8da77:[Windows][GCC 11.2.0][64 bit] 10bit

  34. Encoding settings : cpuid=533541111039 / frame-threads=4 / numa-pools=16 / wpp / no-pmode / no-pme / no-psnr / no-ssim / log-level=2 / input-csp=1 / input-res=1920x802 / interlace=0 / total-frames=197232 / level-idc=51 / high-tier=1 / uhd-bd=0 / ref=5 / no-allow-non-conformance / no-repeat-headers / annexb / no-aud / no-eob / no-eos / no-hrd / info / hash=0 / no-temporal-layers / open-gop / min-keyint=24 / keyint=240 / gop-lookahead=0 / bframes=6 / b-adapt=2 / b-pyramid / bframe-bias=0 / rc-lookahead=40 / lookahead-slices=0 / NTMzNTQ=uuDQuD2mJt9fsCf / scenecut=40 / no-hist-scenecut / radl=0 / no-splice / no-intra-refresh / ctu=32 / min-cu-size=8 / no-rect / no-amp / max-tu-size=32 / tu-inter-depth=3 / tu-intra-depth=3 / limit-tu=4 / rdoq-level=2 / dynamic-rd=0.00 / no-ssim-rd / signhide / no-tskip / nr-intra=0 / nr-inter=0 / no-constrained-intra / no-strong-intra-smoothing / max-merge=4 / limit-refs=1 / limit-modes / me=3 / subme=4 / merange=25 / temporal-mvp / no-frame-dup / no-hme / weightp / weightb / no-analyze-src-pics / deblock=-3:-3 / no-sao / no-sao-non-deblock / rd=6 / selective-sao=0 / no-early-skip / rskip / no-fast-intra / no-tskip-fast / no-cu-lossless / b-intra / no-splitrd-skip / rdpenalty=0 / psy-rd=2.00 / psy-rdoq=1.00 / no-rd-refine / no-lossless / cbqpoffs=-2 / crqpoffs=-2 / rc=crf / crf=17.0 / qcomp=0.65 / qpstep=4 / stats-write=0 / stats-read=0 / vbv-maxrate=80000 / vbv-bufsize=80000 / vbv-init=0.9 / min-vbv-fullness=50.0 / max-vbv-fullness=80.0 / crf-max=0.0 / crf-min=0.0 / ipratio=1.40 / pbratio=1.30 / aq-mode=2 / aq-strength=0.85 / cutree / zone-count=0 / no-strict-cbr / qg-size=32 / no-rc-grain / qpmax=69 / qpmin=0 / no-const-vbv / sar=1 / overscan=0 / videoformat=5 / range=0 / colorprim=1 / transfer=1 / colormatrix=1 / chromaloc=0 / display-window=0 / cll=0,0 / min-luma=0 / max-luma=1023 / log2-max-poc-lsb=8 / vui-timing-info / vui-hrd-info / slices=1 / no-opt-qp-pps / no-opt-ref-list-length-pps / no-multi-pass-opt-rps / scenecut-bias=0.05 / hist-threshold=0.03 / no-opt-cu-delta-qp / no-aq-motion / no-hdr10 / no-hdr10-opt / no-dhdr10-opt / no-idr-recovery-sei / analysis-reuse-level=0 / analysis-save-reuse-level=0 / analysis-load-reuse-level=0 / scale-factor=0 / refine-intra=0 / refine-inter=0 / refine-mv=1 / refine-ctu-distortion=0 / no-limit-sao / ctu-info=0 / no-lowpass-dct / refine-analysis-type=0 / copy-pic=1 / max-ausize-factor=1.0 / no-dynamic-refine / no-single-sei / no-hevc-aq / no-svt / no-field / qp-adaptation-range=1.00 / scenecut-aware-qp=0conformance-window-offsets / right=0 / bottom=0 / NTMzNTQ= / decoder-max-rate=0 / no-vbv-live-multi-pass

  35. Language : English

  36. Default : Yes

  37. Forced : No

  38. Color range : Limited

  39. Color primaries : BT.709

  40. Transfer characteristics : BT.709

  41. Matrix coefficients : BT.709


  42. Audio

  43. ID : 2

  44. Format : DTS ES XLL

  45. Format/Info : Digital Theater Systems

  46. Commercial name : DTS-HD Master Audio

  47. Codec ID : A_DTS

  48. Duration : 2 h 17 min

  49. Bit rate mode : Variable

  50. Bit rate : 1 978 kb/s

  51. Channel(s) : 6 channels

  52. Channel(s)_Original : 7 channels

  53. ChannelLayout_Original : C L R Ls Rs LFE Cs

  54. Sampling rate : 48.0 kHz

  55. Frame rate : 93.750 FPS (512 SPF)

  56. Bit depth : 16 bits

  57. Compression mode : Lossless

  58. Stream size : 1.89 GiB (18%)

  59. Title : Japanese DTS-HD Master Audio 5.1 @ 1978 kbps

  60. Language : Japanese

  61. Default : Yes

  62. Forced : No


  63. Text #1

  64. ID : 3

  65. Format : PGS

  66. Codec ID : S_HDMV/PGS

  67. Codec ID/Info : Picture based subtitle format used on BDs/HD-DVDs

  68. Duration : 2 h 16 min

  69. Bit rate : 69.0 kb/s

  70. Count of elements : 4651

  71. Stream size : 67.5 MiB (1%)

  72. Title : Eng/SUP

  73. Language : English

  74. Default : No

  75. Forced : No


  76. Text #2

  77. ID : 4

  78. Format : PGS

  79. Codec ID : S_HDMV/PGS

  80. Codec ID/Info : Picture based subtitle format used on BDs/HD-DVDs

  81. Duration : 2 h 12 min

  82. Bit rate : 19.8 kb/s

  83. Count of elements : 3132

  84. Stream size : 18.8 MiB (0%)

  85. Title : Chs/SUP 简体

  86. Language : Chinese

  87. Default : Yes

  88. Forced : No


  89. Text #3

  90. ID : 5

  91. Format : PGS

  92. Codec ID : S_HDMV/PGS

  93. Codec ID/Info : Picture based subtitle format used on BDs/HD-DVDs

  94. Duration : 2 h 12 min

  95. Bit rate : 20.4 kb/s

  96. Count of elements : 3132

  97. Stream size : 19.4 MiB (0%)

  98. Title : Cht/SUP 繁体

  99. Language : Chinese

  100. Default : No

  101. Forced : No


  102. Menu

  103. 00:00:00.000 : en:第 01 章

  104. 00:01:34.928 : en:第 02 章

  105. 00:05:05.305 : en:第 03 章

  106. 00:07:19.439 : en:第 04 章

  107. 00:09:11.676 : en:第 05 章

  108. 00:11:53.338 : en:第 06 章

  109. 00:13:43.948 : en:第 07 章

  110. 00:16:26.110 : en:第 08 章

  111. 00:18:20.391 : en:第 09 章

  112. 00:20:45.077 : en:第 10 章

  113. 00:24:23.671 : en:第 11 章

  114. 00:25:33.574 : en:第 12 章

  115. 00:27:41.451 : en:第 13 章

  116. 00:30:26.074 : en:第 14 章

  117. 00:31:08.784 : en:第 15 章

  118. 00:35:32.380 : en:第 16 章

  119. 00:37:26.786 : en:第 17 章

  120. 00:40:36.851 : en:第 18 章

  121. 00:45:03.701 : en:第 19 章

  122. 00:50:57.721 : en:第 20 章

  123. 00:51:47.438 : en:第 21 章

  124. 00:53:12.898 : en:第 22 章

  125. 00:56:29.803 : en:第 23 章

  126. 01:02:40.799 : en:第 24 章

  127. 01:04:16.644 : en:第 25 章

  128. 01:05:07.821 : en:第 26 章

  129. 01:07:25.291 : en:第 27 章

  130. 01:10:00.530 : en:第 28 章

  131. 01:11:07.972 : en:第 29 章

  132. 01:15:49.754 : en:第 30 章

  133. 01:17:25.724 : en:第 31 章

  134. 01:22:07.923 : en:第 32 章

  135. 01:26:44.241 : en:第 33 章

  136. 01:29:30.991 : en:第 34 章

  137. 01:31:34.823 : en:第 35 章

  138. 01:35:29.933 : en:第 36 章

  139. 01:37:36.059 : en:第 37 章

  140. 01:38:52.593 : en:第 38 章

  141. 01:42:19.508 : en:第 39 章

  142. 01:45:05.299 : en:第 40 章

  143. 01:46:15.744 : en:第 41 章

  144. 01:48:18.450 : en:第 42 章

  145. 01:50:04.848 : en:第 43 章

  146. 01:54:03.545 : en:第 44 章

  147. 01:57:07.729 : en:第 45 章

  148. 02:07:08.871 : en:第 46 章

  149. 02:11:16.452 : en:第 47 章

  150. 02:12:12.133 : en:第 48 章




复制代码



文件下载


除非特别注明,本文『魔幻时刻[简繁英字幕].The.Magic.Hour.2008.BluRay.1080p.DTS-HD.MA5.1.x265.10bit-ALT 10.28GB』来源于互联网机器人自动抓取,非本站原创。 浮游电影网不对本文拥有版权,如有侵犯,请联系邮箱:fuyouu#yandex.com[#换成@]投诉。我们会在15个工作日内删除。 但烦请转载时请标明出处:“本文转载于『浮游电影网』,原文地址:https://www.fuyouu.com/21926.html

评论吧骚年!

发表你的见解   

昵称*

E-mail*(建议输入,以便收到博主回复的提示邮件)

验证码*

您可以使用eMule或eMule Mod(Windows)、aMule(Win、Linux、Mac)等软件下载eD2k链接。。
eMule收藏集(.emulecollection)文件是您选中的所有链接的列表文件。eMule可以直接下载它们。
按住SHIFT键选择可以选中多个选择框。
可用文件名和大小选择器来选择文件。
文件名选择器帮您根据文件名称或后缀来选择文件。不分大小写。
符号使用:
和:空格( )、+
不包含:-
或:|
转义:一对英文引号("");
匹配开头:^
匹配结尾:$
例如:
选中所有名称中包含有“eMule”或“0.49c”字眼,但不包含有“exe”字眼的:emule|0.49c -exe
选中所有名称的开头是“eMule”,结尾是“0.49c”的:^emule 0.49c$
选中所有名称中带有“eMule 0.49c”的(必须是“eMule 0.49c”,中间没有别的字符,不能是“eMule fake 0.49c”),需要转义:"emule 0.49c"
大小选择器帮您根据文件大小选择文件。