当前位置: 首页 >> 欧美电影 >> 美少女特攻队[中文字幕].Sucker.Punch.2011.EXTENDED.2160p.WEB-DL.x265.10bit.HDR.DTS-HD.MA.5.1-NOGRP 16.86GB >> 正文

美少女特攻队[中文字幕].Sucker.Punch.2011.EXTENDED.2160p.WEB-DL.x265.10bit.HDR.DTS-HD.MA.5.1-NOGRP 16.86GB

2022年05月07日 10:39:38     电影发布:来源于网络     电影分类:欧美电影     评论(0)    

美少女特攻队[中文字幕].Sucker.Punch.2011.EXTENDED.2160p.WEB DL.x265.10bit.HDR.DTS HD.MA.5.1 NOGRP 16.86GB  欧美电影  第1张

美少女特攻队[中文字幕].Sucker.Punch.2011.EXTENDED.2160p.WEB DL.x265.10bit.HDR.DTS HD.MA.5.1 NOGRP 16.86GB  欧美电影  第2张

◎译 名 美少女特攻队 / 杀客同萌(台) / 天姬战(港) / 美少女特工队 / 专扁衰仔 / 出其不意 / 攻其不备 / 暴走萝莉(豆友译名)

◎片 名 Sucker Punch

◎年 代 2011

◎产 地 美国 / 加拿大

◎类 别 动作 / 奇幻 / 冒险

◎语 言 英语 / 德语

◎上映日期 2011-04-15(中国大陆) / 2011-03-25(美国)

◎IMDb链接 https://www.imdb.com/title/tt0978764/

◎豆瓣评分 6.3/10 (63486人评价)

◎豆瓣链接 https://movie.douban.com/subject/3262050/

◎片 长 110分钟

◎导 演 扎克·施奈德 Zack Snyder (id:1031904)

◎编 剧 扎克·施奈德 Zack Snyder (id:1031904)

◎演 员 艾米莉·布朗宁 Emily Browning (id:1036352)

郑智麟 Jamie Chung (id:1000068)

吉娜·马隆 Jena Malone (id:1040982)

凡妮莎·哈金斯 Vanessa Hudgens (id:1025150)

艾比·考尼什 Abbie Cornish (id:1040985)

卡拉·古奇诺 Carla Gugino (id:1049495)

乔恩·哈姆 Jon Hamm (id:1031817)

斯科特·格伦 Scott Glenn (id:1007019)

奥斯卡·伊萨克 Oscar Isaac (id:1012481)

帕特里克·萨邦圭 Patrick Sabongui (id:1014383)

杰拉德·普伦科特 Gerard Plunkett (id:1323900)

理查德·赛特伦 Richard Cetrone (id:1280368)

迈克尔·加·怀特 Michael Jai White (id:1040509)

扎克·施奈德 Zack Snyder (id:1031904)

黛博拉·施奈德 Deborah Snyder (id:1375247)

韦斯利·柯勒 Wesley Coller (id:1441526)

托马斯·图尔 Thomas Tull (id:1348364)

拉瑞·方 Larry Fong (id:1334259)

瑞克·卡特 Rick Carter (id:1280172)

奥利维尔·蒂博 Olivier Thibaut (id:1325881)

萨曼莎·乔 Samantha Win (id:1330077)

◎简 介

金发碧眼的洋娃娃(Emily Browning 饰)宛如一只时刻会受到惊吓的小鸟,这一天她被送进一家私人会所。该会所由蓝佬(Oscar Isaac 饰)掌控,他四处网罗妙龄女孩,并让葛斯基夫人(Carla Gugino 饰)教授她们舞蹈,旨在取悦那些腰缠万贯的富翁和手眼通天的政要。洋娃娃在此结识了小甜荳(Abbie Cornish 饰)、火箭女(Jena Malone 饰)、布女郎(Vanessa Hudgens 饰)、黑琥珀(Jamie Chung 饰)这4名好友。洋娃娃不愿沦为供人把玩的工具,她与朋友们商量从此逃走。逃亡计划需要4样工具:地图、打火机、刀和钥匙。朋友们负责盗取这些工具,而洋娃娃则用她那迷人且极具魔幻色彩的舞蹈吸引着蓝佬等人的注意力。

只是终究也分不清,这是谁人的魔幻世界……

  1. Video

  2. ID : 1

  3. Format : HEVC

  4. Format/Info : High Efficiency Video Coding

  5. Format profile : Main [email protected]@High

  6. HDR format : SMPTE ST 2086, HDR10 compatible

  7. Codec ID : V_MPEGH/ISO/HEVC

  8. Duration : 2 h 7 min

  9. Bit rate : 14.3 Mb/s

  10. Width : 3 832 pixels

  11. Height : 1 584 pixels

  12. Display aspect ratio : 2.40:1

  13. Frame rate mode : Constant

  14. Frame rate : 23.976 FPS

  15. Color space : YUV

  16. Chroma subsampling : 4:2:0 (Type 2)

  17. Bit depth : 10 bits

  18. Bits/(Pixel*Frame) : 0.098

  19. Stream size : 12.7 GiB (76%)

  20. Default : Yes

  21. Forced : No

  22. Color range : Limited

  23. Color primaries : BT.2020

  24. Transfer characteristics : PQ

  25. Matrix coefficients : BT.2020 non-constant

  26. Mastering display color primaries : BT.2020

  27. Mastering display luminance : min: 0.0050 cd/m2, max: 1000 cd/m2

  28. Maximum Content Light Level : 1105 cd/m2

  29. Maximum Frame-Average Light Level : 805 cd/m2


  30. Audio #1

  31. ID : 2

  32. Format : DTS XLL

  33. Format/Info : Digital Theater Systems

  34. Commercial name : DTS-HD Master Audio

  35. Codec ID : A_DTS

  36. Duration : 2 h 7 min

  37. Bit rate mode : Variable

  38. Bit rate : 4 106 kb/s

  39. Channel(s) : 6 channels

  40. Channel layout : C L R Ls Rs LFE

  41. Sampling rate : 48.0 kHz

  42. Frame rate : 93.750 FPS (512 SPF)

  43. Bit depth : 24 bits

  44. Compression mode : Lossless

  45. Delay relative to video : 8 ms

  46. Stream size : 3.66 GiB (22%)

  47. Title : DTS-HD MA 5.1

  48. Language : English

  49. Default : Yes

  50. Forced : No


  51. Audio #2

  52. ID : 3

  53. Format : AC-3

  54. Format/Info : Audio Coding 3

  55. Commercial name : Dolby Digital

  56. Codec ID : A_AC3

  57. Duration : 2 h 7 min

  58. Bit rate mode : Constant

  59. Bit rate : 384 kb/s

  60. Channel(s) : 6 channels

  61. Channel layout : L R C LFE Ls Rs

  62. Sampling rate : 48.0 kHz

  63. Frame rate : 31.250 FPS (1536 SPF)

  64. Compression mode : Lossy

  65. Stream size : 350 MiB (2%)

  66. Language : English

  67. Service kind : Complete Main

  68. Default : Yes

  69. Forced : No


  70. Text #1

  71. ID : 4

  72. Format : UTF-8

  73. Codec ID : S_TEXT/UTF8

  74. Codec ID/Info : UTF-8 Plain Text

  75. Duration : 2 h 7 min

  76. Bit rate : 37 b/s

  77. Count of elements : 1224

  78. Stream size : 35.1 KiB (0%)

  79. Language : English

  80. Default : Yes

  81. Forced : No


  82. Text #2

  83. ID : 5

  84. Format : UTF-8

  85. Codec ID : S_TEXT/UTF8

  86. Codec ID/Info : UTF-8 Plain Text

  87. Duration : 2 h 6 min

  88. Bit rate : 43 b/s

  89. Count of elements : 1249

  90. Stream size : 40.2 KiB (0%)

  91. Title : SDH

  92. Language : German

  93. Default : No

  94. Forced : No


  95. Text #3

  96. ID : 6

  97. Format : UTF-8

  98. Codec ID : S_TEXT/UTF8

  99. Codec ID/Info : UTF-8 Plain Text

  100. Duration : 2 h 6 min

  101. Bit rate : 33 b/s

  102. Count of elements : 1065

  103. Stream size : 31.0 KiB (0%)

  104. Title : Latin American

  105. Language : Spanish

  106. Default : No

  107. Forced : No


  108. Text #4

  109. ID : 7

  110. Format : UTF-8

  111. Codec ID : S_TEXT/UTF8

  112. Codec ID/Info : UTF-8 Plain Text

  113. Duration : 2 h 7 min

  114. Bit rate : 31 b/s

  115. Count of elements : 1070

  116. Stream size : 28.9 KiB (0%)

  117. Language : French

  118. Default : No

  119. Forced : No


  120. Text #5

  121. ID : 8

  122. Format : UTF-8

  123. Codec ID : S_TEXT/UTF8

  124. Codec ID/Info : UTF-8 Plain Text

  125. Duration : 2 h 1 min

  126. Bit rate : 31 b/s

  127. Count of elements : 1047

  128. Stream size : 27.7 KiB (0%)

  129. Language : Japanese

  130. Default : No

  131. Forced : No


  132. Text #6

  133. ID : 9

  134. Format : UTF-8

  135. Codec ID : S_TEXT/UTF8

  136. Codec ID/Info : UTF-8 Plain Text

  137. Duration : 2 h 6 min

  138. Bit rate : 32 b/s

  139. Count of elements : 1044

  140. Stream size : 30.6 KiB (0%)

  141. Title : Brazilian

  142. Language : Portuguese

  143. Default : No

  144. Forced : No


  145. Text #7

  146. ID : 10

  147. Format : PGS

  148. Muxing mode : zlib

  149. Codec ID : S_HDMV/PGS

  150. Codec ID/Info : Picture based subtitle format used on BDs/HD-DVDs

  151. Duration : 2 h 7 min

  152. Bit rate : 20.9 kb/s

  153. Count of elements : 2446

  154. Stream size : 19.0 MiB (0%)

  155. Language : English

  156. Default : No

  157. Forced : No


  158. Text #8

  159. ID : 11

  160. Format : PGS

  161. Muxing mode : zlib

  162. Codec ID : S_HDMV/PGS

  163. Codec ID/Info : Picture based subtitle format used on BDs/HD-DVDs

  164. Duration : 2 h 7 min

  165. Bit rate : 16.0 kb/s

  166. Count of elements : 2142

  167. Stream size : 14.6 MiB (0%)

  168. Language : French

  169. Default : No

  170. Forced : No


  171. Text #9

  172. ID : 12

  173. Format : PGS

  174. Muxing mode : zlib

  175. Codec ID : S_HDMV/PGS

  176. Codec ID/Info : Picture based subtitle format used on BDs/HD-DVDs

  177. Duration : 2 h 7 min

  178. Bit rate : 20.7 kb/s

  179. Count of elements : 2472

  180. Stream size : 18.9 MiB (0%)

  181. Language : Italian

  182. Default : No

  183. Forced : No


  184. Text #10

  185. ID : 13

  186. Format : PGS

  187. Muxing mode : zlib

  188. Codec ID : S_HDMV/PGS

  189. Codec ID/Info : Picture based subtitle format used on BDs/HD-DVDs

  190. Duration : 2 h 7 min

  191. Bit rate : 16.8 kb/s

  192. Count of elements : 2048

  193. Stream size : 15.3 MiB (0%)

  194. Language : Spanish

  195. Default : No

  196. Forced : No


  197. Text #11

  198. ID : 14

  199. Format : PGS

  200. Muxing mode : zlib

  201. Codec ID : S_HDMV/PGS

  202. Codec ID/Info : Picture based subtitle format used on BDs/HD-DVDs

  203. Duration : 2 h 7 min

  204. Bit rate : 15.9 kb/s

  205. Count of elements : 1720

  206. Stream size : 14.4 MiB (0%)

  207. Language : Dutch

  208. Default : No

  209. Forced : No


  210. Text #12

  211. ID : 15

  212. Format : PGS

  213. Muxing mode : zlib

  214. Codec ID : S_HDMV/PGS

  215. Codec ID/Info : Picture based subtitle format used on BDs/HD-DVDs

  216. Duration : 2 h 7 min

  217. Bit rate : 16.4 kb/s

  218. Count of elements : 2118

  219. Stream size : 14.9 MiB (0%)

  220. Language : Chinese

  221. Default : No

  222. Forced : No


  223. Text #13

  224. ID : 16

  225. Format : PGS

  226. Muxing mode : zlib

  227. Codec ID : S_HDMV/PGS

  228. Codec ID/Info : Picture based subtitle format used on BDs/HD-DVDs

  229. Duration : 2 h 7 min

  230. Bit rate : 15.2 kb/s

  231. Count of elements : 1626

  232. Stream size : 13.9 MiB (0%)

  233. Language : Danish

  234. Default : No

  235. Forced : No


  236. Text #14

  237. ID : 17

  238. Format : PGS

  239. Muxing mode : zlib

  240. Codec ID : S_HDMV/PGS

  241. Codec ID/Info : Picture based subtitle format used on BDs/HD-DVDs

  242. Duration : 2 h 7 min

  243. Bit rate : 15.1 kb/s

  244. Count of elements : 1764

  245. Stream size : 13.8 MiB (0%)

  246. Language : Finnish

  247. Default : No

  248. Forced : No


  249. Text #15

  250. ID : 18

  251. Format : PGS

  252. Muxing mode : zlib

  253. Codec ID : S_HDMV/PGS

  254. Codec ID/Info : Picture based subtitle format used on BDs/HD-DVDs

  255. Duration : 2 h 7 min

  256. Bit rate : 16.6 kb/s

  257. Count of elements : 2082

  258. Stream size : 15.1 MiB (0%)

  259. Language : Icelandic

  260. Default : No

  261. Forced : No


  262. Text #16

  263. ID : 19

  264. Format : PGS

  265. Muxing mode : zlib

  266. Codec ID : S_HDMV/PGS

  267. Codec ID/Info : Picture based subtitle format used on BDs/HD-DVDs

  268. Duration : 2 h 7 min

  269. Bit rate : 15.0 kb/s

  270. Count of elements : 1720

  271. Stream size : 13.7 MiB (0%)

  272. Language : Norwegian

  273. Default : No

  274. Forced : No


  275. Text #17

  276. ID : 20

  277. Format : PGS

  278. Muxing mode : zlib

  279. Codec ID : S_HDMV/PGS

  280. Codec ID/Info : Picture based subtitle format used on BDs/HD-DVDs

  281. Duration : 2 h 7 min

  282. Bit rate : 15.3 kb/s

  283. Count of elements : 1988

  284. Stream size : 13.9 MiB (0%)

  285. Language : Polish

  286. Default : No

  287. Forced : No


  288. Text #18

  289. ID : 21

  290. Format : PGS

  291. Muxing mode : zlib

  292. Codec ID : S_HDMV/PGS

  293. Codec ID/Info : Picture based subtitle format used on BDs/HD-DVDs

  294. Duration : 2 h 7 min

  295. Bit rate : 17.0 kb/s

  296. Count of elements : 2058

  297. Stream size : 15.5 MiB (0%)

  298. Language : Portuguese

  299. Default : No

  300. Forced : No


  301. Text #19

  302. ID : 22

  303. Format : PGS

  304. Muxing mode : zlib

  305. Codec ID : S_HDMV/PGS

  306. Codec ID/Info : Picture based subtitle format used on BDs/HD-DVDs

  307. Duration : 2 h 7 min

  308. Bit rate : 15.1 kb/s

  309. Count of elements : 2090

  310. Stream size : 13.8 MiB (0%)

  311. Language : Russian

  312. Default : No

  313. Forced : No


  314. Text #20

  315. ID : 23

  316. Format : PGS

  317. Muxing mode : zlib

  318. Codec ID : S_HDMV/PGS

  319. Codec ID/Info : Picture based subtitle format used on BDs/HD-DVDs

  320. Duration : 2 h 7 min

  321. Bit rate : 16.0 kb/s

  322. Count of elements : 1748

  323. Stream size : 14.6 MiB (0%)

  324. Language : Swedish

  325. Default : No

  326. Forced : No


  327. Text #21

  328. ID : 24

  329. Format : PGS

  330. Muxing mode : zlib

  331. Codec ID : S_HDMV/PGS

  332. Codec ID/Info : Picture based subtitle format used on BDs/HD-DVDs

  333. Duration : 2 h 7 min

  334. Bit rate : 16.5 kb/s

  335. Count of elements : 2088

  336. Stream size : 15.0 MiB (0%)

  337. Language : Thai

  338. Default : No

  339. Forced : No


  340. Text #22

  341. ID : 25

  342. Format : PGS

  343. Muxing mode : zlib

  344. Codec ID : S_HDMV/PGS

  345. Codec ID/Info : Picture based subtitle format used on BDs/HD-DVDs

  346. Duration : 2 h 1 min

  347. Bit rate : 19.7 kb/s

  348. Count of elements : 2565

  349. Stream size : 17.1 MiB (0%)

  350. Language : Japanese

  351. Default : No

  352. Forced : No


  353. Menu

  354. 00:00:00.000 : en:Chapter 01

  355. 00:05:59.985 : en:Chapter 02

  356. 00:12:25.703 : en:Chapter 03

  357. 00:24:59.456 : en:Chapter 04

  358. 00:36:15.590 : en:Chapter 05

  359. 00:42:35.720 : en:Chapter 06

  360. 00:57:42.501 : en:Chapter 07

  361. 01:01:29.936 : en:Chapter 08

  362. 01:21:13.118 : en:Chapter 09

  363. 01:37:03.526 : en:Chapter 10

  364. 01:53:19.543 : en:Chapter 11

  365. 02:01:45.757 : en:Chapter 12

复制代码

美少女特攻队[中文字幕].Sucker.Punch.2011.EXTENDED.2160p.WEB DL.x265.10bit.HDR.DTS HD.MA.5.1 NOGRP 16.86GB  欧美电影  第4张、、、、、、




文件下载


除非特别注明,本文『美少女特攻队[中文字幕].Sucker.Punch.2011.EXTENDED.2160p.WEB-DL.x265.10bit.HDR.DTS-HD.MA.5.1-NOGRP 16.86GB』来源于互联网机器人自动抓取,非本站原创。 浮游电影网不对本文拥有版权,如有侵犯,请联系邮箱:fuyouu#yandex.com[#换成@]投诉。我们会在15个工作日内删除。 但烦请转载时请标明出处:“本文转载于『浮游电影网』,原文地址:https://www.fuyouu.com/21920.html

评论吧骚年!

发表你的见解   

昵称*

E-mail*(建议输入,以便收到博主回复的提示邮件)

验证码*

您可以使用eMule或eMule Mod(Windows)、aMule(Win、Linux、Mac)等软件下载eD2k链接。。
eMule收藏集(.emulecollection)文件是您选中的所有链接的列表文件。eMule可以直接下载它们。
按住SHIFT键选择可以选中多个选择框。
可用文件名和大小选择器来选择文件。
文件名选择器帮您根据文件名称或后缀来选择文件。不分大小写。
符号使用:
和:空格( )、+
不包含:-
或:|
转义:一对英文引号("");
匹配开头:^
匹配结尾:$
例如:
选中所有名称中包含有“eMule”或“0.49c”字眼,但不包含有“exe”字眼的:emule|0.49c -exe
选中所有名称的开头是“eMule”,结尾是“0.49c”的:^emule 0.49c$
选中所有名称中带有“eMule 0.49c”的(必须是“eMule 0.49c”,中间没有别的字符,不能是“eMule fake 0.49c”),需要转义:"emule 0.49c"
大小选择器帮您根据文件大小选择文件。