当前位置: 首页 >> 动画电影 >> 萌宠流浪记[国英多音轨/简体字幕].Trouble.2019.BluRay.1080p.x265.10bit.DDP5.1-MiniHD 6.97GB >> 正文

萌宠流浪记[国英多音轨/简体字幕].Trouble.2019.BluRay.1080p.x265.10bit.DDP5.1-MiniHD 6.97GB

2022年05月06日 14:19:59     电影发布:来源于网络     电影分类:动画电影     评论(0)    

◎译 名 萌宠流浪记 / 小麻烦当家(台)

◎片 名 Trouble

◎年 代 2019

◎产 地 加拿大 / 美国 / 开曼群岛

◎类 别 喜剧 / 动画 / 家庭

◎语 言 英语

◎上映日期 2020-09-18(中国大陆) / 2019-08-08(泰国)

◎IMDb链接 https://www.imdb.com/title/tt6772524/

◎豆瓣评分 5.7/10 (1847人评价)

◎豆瓣链接 https://movie.douban.com/subject/30476829/

◎片 长 87分钟

◎导 演 凯文·约翰逊 Kevin Johnson (id:1444318)

◎编 剧 罗布·缪尔 Rob Muir (id:1382353)

哈兰德·威廉姆斯 Harland Williams (id:1054837)

Judah Miller Judah Miller (id:1303535)

◎演 员 大肖恩 Big Sean (id:1444316)

帕梅拉·阿德龙 Pamela Adlon (id:1143044)

露西·海尔 Lucy Hale (id:1017884)

玛丽莎·贾里特·威诺克 Marissa Jaret Winokur (id:1004794)

维尔摩·瓦尔德拉玛 Wilmer Valderrama (id:1004606)

乔尔·麦克哈尔 Joel McHale (id:1040560)

塞斯·罗林斯 Seth Rollins (id:1389216)

小达蒙·韦恩斯 Damon Wayans Jr. (id:1312985)

奥利维亚·霍尔特 Olivia Holt (id:1351403)

卡洛斯·佩纳 Carlos Pena (id:1191435)

哈兰德·威廉姆斯 Harland Williams (id:1054837)

康拉德·弗农 Conrad Vernon (id:1009555)

迪·布拉雷·贝克尔 Dee Bradley Baker (id:1059406)

凯文·张伯伦 Kevin Chamberlin (id:1076329)

吉姆·卡明斯 Jim Cummings (id:1040525)

曼尼·斯特里茨 Manny Streetz (id:1402167)

杰森·玛耶兹 Jason Mraz (id:1009574)

西泽·米兰 Cesar Millan (id:1214429)

史努比狗狗 Snoop Dogg (id:1027838)

贝蒂·怀特 Betty White (id:1013765)

麦丽·弗拉纳甘 Maile Flanagan (id:1090433)

凯特·希金斯 Kate Higgins (id:1218909)

米歇尔·拉夫 Michelle Ruff (id:1139744)

基思·西尔弗斯坦 Keith Silverstein (id:1204403)

弗雷德·塔特西奥 Fred Tatasciore (id:1320585)

柯克·桑顿 Kirk Thornton (id:1159544)

乔尔·克劳福德 Joel Crawford (id:1445049)

◎简 介

Trouble是一只被宠坏了的狗狗,平时生活在一个大豪宅中,这一切都是其他狗狗做梦都难以得到的,直到富有的女主人去世后,Trouble阴错阳差离开豪宅变成了一只流浪狗,面对险恶的世界,他不仅需要寻找一个新家,还要设法摆脱已故主人贪婪的亲戚的绑架和阴谋。

  1. ##### MediaInfo ######

  2. General

  3. Unique ID : 111166326570596190340672327655209711254 (0x53A1DB10231FAC4C3B3ACF7725023696)

  4. Complete name : Trouble.2019.BluRay.1080p.x265.10bit.DDP5.1-MiniHD.mkv

  5. Format : Matroska

  6. Format version : Version 4

  7. File size : 6.97 GiB

  8. Duration : 1 h 27 min

  9. Overall bit rate : 11.4 Mb/s

  10. Movie name : Trouble 2019

  11. Encoded date : UTC 2022-05-05 15:02:47

  12. Writing application : mkvmerge v67.0.0 ('Under Stars') 64-bit

  13. Writing library : libebml v1.4.2 + libmatroska v1.6.4


  14. Video

  15. ID : 1

  16. Format : HEVC

  17. Format/Info : High Efficiency Video Coding

  18. Format profile : Main [email protected]@High

  19. Codec ID : V_MPEGH/ISO/HEVC

  20. Duration : 1 h 27 min

  21. Bit rate : 8 037 kb/s

  22. Width : 1 920 pixels

  23. Height : 1 038 pixels

  24. Display aspect ratio : 1.85:1

  25. Frame rate mode : Constant

  26. Frame rate : 24.000 FPS

  27. Color space : YUV

  28. Chroma subsampling : 4:2:0

  29. Bit depth : 10 bits

  30. Bits/(Pixel*Frame) : 0.168

  31. Stream size : 4.92 GiB (71%)

  32. Writing library : x265 3.5+2-g2b25c9ba0+94-g095f84f59:[Windows][clang 13.0.1][64 bit] Yuuki 10bit+8bit+12bit

  33. Encoding settings : rc=crf / crf=16.0000 / qcomp=0.70 / qpstep=4 / stats-write=0 / stats-read=0 / vbv-maxrate=160000 / vbv-bufsize=160000 / vbv-init=0.9 / min-vbv-fullness=50.0 / max-vbv-fullness=80.0 / crf-max=0.0 / crf-min=0.0 / no-lossless / no-cu-lossless / aq-mode=3 / aq-strength=0.80 / cbqpoffs=-2 / crqpoffs=-3 / ipratio=1.40 / pbratio=1.10 / psy-rd=1.20 / psy-rdoq=0.80 / deblock=-1:-1 / ref=5 / limit-refs=1 / limit-modes / bframes=16 / b-adapt=2 / bframe-bias=0 / b-pyramid / b-intra / weightp / weightb / min-keyint=1 / max-keyint=600 / rc-lookahead=180 / gop-lookahead=0 / NTMzNTQ=uuDQuD2mJt9fsCf / scenecut=40 / hist-scenecut=0 / radl=0 / max-cu-size=32 / min-cu-size=8 / me=3 / subme=5 / merange=57 / rdoq-level=2 / rd=5 / rdpenalty=0 / dynamic-rd=0.00 / no-rd-refine / ----- / cutree / no-sao / no-rect / no-amp / open-gop / wpp / no-pmode / no-pme / no-psnr / no-ssim / nr-intra=0 / nr-inter=0 / no-constrained-intra / no-strong-intra-smoothing / max-tu-size=32 / tu-inter-depth=3 / tu-intra-depth=3 / limit-tu=1 / qg-size=16 / qpmax=69 / qpmin=0 / ----- / cpuid=533541111039 / frame-threads=4 / numa-pools=16 / log-level=2 / input-csp=1 / input-res=1920x1038 / interlace=0 / level-idc=51 / high-tier=1 / uhd-bd=0 / no-allow-non-conformance / repeat-headers / aud / hrd / info / hash=0 / no-temporal-layers / lookahead-slices=0 / no-splice / no-intra-refresh / no-ssim-rd / signhide / no-tskip / max-merge=3 / temporal-mvp / no-frame-dup / no-hme / no-analyze-src-pics / no-sao-non-deblock / selective-sao=0 / no-early-skip / rskip / no-fast-intra / no-tskip-fast / no-splitrd-skip / zone-count=0 / no-strict-cbr / no-rc-grain / no-const-vbv / sar=0 / overscan=0 / videoformat=5 / range=0 / colorprim=2 / transfer=2 / colormatrix=1 / chromaloc=0 / display-window=0 / cll=0,0 / min-luma=0 / max-luma=1023 / log2-max-poc-lsb=8 / vui-timing-info / vui-hrd-info / slices=1 / no-opt-qp-pps / no-opt-ref-list-length-pps / no-multi-pass-opt-rps / scenecut-bias=0.05 / hist-threshold=0.03 / no-opt-cu-delta-qp / no-aq-motion / no-hdr10 / no-hdr10-opt / no-dhdr10-opt / no-idr-recovery-sei / analysis-reuse-level=0 / analysis-save-reuse-level=0 / analysis-load-reuse-level=0 / scale-factor=0 / refine-intra=0 / refine-inter=0 / refine-mv=1 / refine-ctu-distortion=0 / no-limit-sao / ctu-info=0 / no-lowpass-dct / refine-analysis-type=0 / copy-pic=1 / max-ausize-factor=1.0 / no-dynamic-refine / no-single-sei / no-hevc-aq / no-svt / no-field / qp-adaptation-range=1.00 / scenecut-aware-qp=0conformance-window-offsets / right=0 / bottom=0 / NTMzNTQ= / decoder-max-rate=0 / no-vbv-live-multi-pass

  34. Language : Dutch

  35. Default : Yes

  36. Forced : No

  37. Color range : Limited

  38. Matrix coefficients : BT.709


  39. Audio #1

  40. ID : 2

  41. Format : E-AC-3

  42. Format/Info : Enhanced AC-3

  43. Commercial name : Dolby Digital Plus

  44. Codec ID : A_EAC3

  45. Duration : 1 h 27 min

  46. Bit rate mode : Constant

  47. Bit rate : 1 024 kb/s

  48. Channel(s) : 6 channels

  49. Channel layout : L R C LFE Ls Rs

  50. Sampling rate : 48.0 kHz

  51. Frame rate : 31.250 FPS (1536 SPF)

  52. Compression mode : Lossy

  53. Stream size : 642 MiB (9%)

  54. Language : English

  55. Service kind : Complete Main

  56. Default : Yes

  57. Forced : No


  58. Audio #2

  59. ID : 3

  60. Format : E-AC-3

  61. Format/Info : Enhanced AC-3

  62. Commercial name : Dolby Digital Plus

  63. Codec ID : A_EAC3

  64. Duration : 1 h 27 min

  65. Bit rate mode : Constant

  66. Bit rate : 1 024 kb/s

  67. Channel(s) : 6 channels

  68. Channel layout : L R C LFE Ls Rs

  69. Sampling rate : 48.0 kHz

  70. Frame rate : 31.250 FPS (1536 SPF)

  71. Compression mode : Lossy

  72. Stream size : 642 MiB (9%)

  73. Language : Dutch

  74. Service kind : Complete Main

  75. Default : No

  76. Forced : No


  77. Audio #3

  78. ID : 4

  79. Format : E-AC-3

  80. Format/Info : Enhanced AC-3

  81. Commercial name : Dolby Digital Plus

  82. Codec ID : A_EAC3

  83. Duration : 1 h 27 min

  84. Bit rate mode : Constant

  85. Bit rate : 1 024 kb/s

  86. Channel(s) : 6 channels

  87. Channel layout : L R C LFE Ls Rs

  88. Sampling rate : 48.0 kHz

  89. Frame rate : 31.250 FPS (1536 SPF)

  90. Compression mode : Lossy

  91. Stream size : 642 MiB (9%)

  92. Language : Dutch

  93. Service kind : Complete Main

  94. Default : No

  95. Forced : No


  96. Audio #4

  97. ID : 5

  98. Format : AC-3

  99. Format/Info : Audio Coding 3

  100. Commercial name : Dolby Digital

  101. Codec ID : A_AC3

  102. Duration : 1 h 27 min

  103. Bit rate mode : Constant

  104. Bit rate : 256 kb/s

  105. Channel(s) : 6 channels

  106. Channel layout : L R C LFE Ls Rs

  107. Sampling rate : 48.0 kHz

  108. Frame rate : 31.250 FPS (1536 SPF)

  109. Compression mode : Lossy

  110. Stream size : 161 MiB (2%)

  111. Title : DVD Taiwan zh

  112. Language : Chinese

  113. Service kind : Complete Main

  114. Default : No

  115. Forced : No


  116. Text #1

  117. ID : 6

  118. ID in the original source medium : 4608 (0x1200)

  119. Format : PGS

  120. Muxing mode : zlib

  121. Codec ID : S_HDMV/PGS

  122. Codec ID/Info : Picture based subtitle format used on BDs/HD-DVDs

  123. Duration : 1 h 24 min

  124. Bit rate : 25.8 kb/s

  125. Count of elements : 1580

  126. Stream size : 15.7 MiB (0%)

  127. Language : Dutch

  128. Default : Yes

  129. Forced : No

  130. Original source medium : Blu-ray


  131. Text #2

  132. ID : 7

  133. ID in the original source medium : 4609 (0x1201)

  134. Format : PGS

  135. Muxing mode : zlib

  136. Codec ID : S_HDMV/PGS

  137. Codec ID/Info : Picture based subtitle format used on BDs/HD-DVDs

  138. Duration : 53 min 8 s

  139. Bit rate : 152 b/s

  140. Count of elements : 10

  141. Stream size : 59.3 KiB (0%)

  142. Language : Dutch

  143. Default : No

  144. Forced : No

  145. Original source medium : Blu-ray


  146. Text #3

  147. ID : 8

  148. Format : UTF-8

  149. Codec ID : S_TEXT/UTF8

  150. Codec ID/Info : UTF-8 Plain Text

  151. Duration : 1 h 18 min

  152. Bit rate : 59 b/s

  153. Count of elements : 1395

  154. Stream size : 34.2 KiB (0%)

  155. Title : DVD Taiwan zh-Hans

  156. Language : Chinese

  157. Default : No

  158. Forced : No


  159. Text #4

  160. ID : 9

  161. Format : UTF-8

  162. Codec ID : S_TEXT/UTF8

  163. Codec ID/Info : UTF-8 Plain Text

  164. Duration : 1 h 18 min

  165. Bit rate : 59 b/s

  166. Count of elements : 1396

  167. Stream size : 34.3 KiB (0%)

  168. Title : 繁化姬 zh-NewHD

复制代码



文件下载


除非特别注明,本文『萌宠流浪记[国英多音轨/简体字幕].Trouble.2019.BluRay.1080p.x265.10bit.DDP5.1-MiniHD 6.97GB』来源于互联网机器人自动抓取,非本站原创。 浮游电影网不对本文拥有版权,如有侵犯,请联系邮箱:fuyouu#yandex.com[#换成@]投诉。我们会在15个工作日内删除。 但烦请转载时请标明出处:“本文转载于『浮游电影网』,原文地址:https://www.fuyouu.com/21916.html

评论吧骚年!

发表你的见解   

昵称*

E-mail*(建议输入,以便收到博主回复的提示邮件)

验证码*

您可以使用eMule或eMule Mod(Windows)、aMule(Win、Linux、Mac)等软件下载eD2k链接。。
eMule收藏集(.emulecollection)文件是您选中的所有链接的列表文件。eMule可以直接下载它们。
按住SHIFT键选择可以选中多个选择框。
可用文件名和大小选择器来选择文件。
文件名选择器帮您根据文件名称或后缀来选择文件。不分大小写。
符号使用:
和:空格( )、+
不包含:-
或:|
转义:一对英文引号("");
匹配开头:^
匹配结尾:$
例如:
选中所有名称中包含有“eMule”或“0.49c”字眼,但不包含有“exe”字眼的:emule|0.49c -exe
选中所有名称的开头是“eMule”,结尾是“0.49c”的:^emule 0.49c$
选中所有名称中带有“eMule 0.49c”的(必须是“eMule 0.49c”,中间没有别的字符,不能是“eMule fake 0.49c”),需要转义:"emule 0.49c"
大小选择器帮您根据文件大小选择文件。