当前位置: 首页 >> 欧美电影 >> 银行匪帮[简繁英字幕].Taker.2010.BluRay.1080p.DTS-HD.MA.5.1.x265.10bit-CTRLHD 7.73GB >> 正文

银行匪帮[简繁英字幕].Taker.2010.BluRay.1080p.DTS-HD.MA.5.1.x265.10bit-CTRLHD 7.73GB

2022年05月06日 14:18:00     电影发布:来源于网络     电影分类:欧美电影     评论(0)    

◎译 名 银行匪帮 / 劫匪 / 狭路相逢 / 偷天抢地 / Bone Deep

◎片 名 Takers

◎年 代 2010

◎产 地 美国

◎类 别 动作 / 惊悚 / 犯罪

◎语 言 英语

◎上映日期 2010-01-08

◎IMDb链接 https://www.imdb.com/title/tt1135084/

◎豆瓣评分 6.9/10 (17596人评价)

◎豆瓣链接 https://movie.douban.com/subject/3158432/

◎片 长 107分钟(美国)

◎导 演 约翰·卢森霍普 John Luessenhop (id:1328756)

◎编 剧 加布里埃尔·卡塞斯 Gabriel Casseus (id:1045136)

约翰·卢森霍普 John Luessenhop (id:1328756)

◎演 员 克里斯·布朗 Chris Brown (id:1247642)

海登·克里斯滕森 Hayden Christensen (id:1041023)

马特·狄龙 Matt Dillon (id:1004583)

迈克尔·伊雷 Michael Ealy (id:1022673)

伊德里斯·艾尔巴 Idris Elba (id:1049501)

史蒂夫·哈里斯 Steve Harris (id:1055408)

T.I. (id:1027329)

杰伊·埃尔南德斯 Jay Hernandez (id:1031940)

乔纳森·斯卡奇 Johnathon Schaech (id:1049636)

保罗·沃克 Paul Walker (id:1031239)

玛丽安娜·琼-巴普蒂斯特 Marianne Jean-Baptiste (id:1055527)

盖乌斯·查尔斯 Gaius Charles (id:1045091)

吉迪恩·埃默里 Gideon Emery (id:1049987)

祖蕾·亨奥 Zulay Henao (id:1018104)

格林·特鲁曼 Glynn Turman (id:1007099)

尼古拉斯·特图罗 Nicholas Turturro (id:1153401)

佐伊·索尔达娜 Zoe Saldana (id:1047985)

伊莎·布里昂斯 Isa Briones (id:1431147)

弗拉基米尔·特夫洛夫斯基 Vladimir Tevlovski (id:1308764)

Karl Knuth (id:1243933)

Kelvin Brown Kelvin Brown (id:1071267)

安德鲁·费斯切拉 Andrew Fiscella (id:1080845)

威尔·麦克法登 Will McFadden (id:1357592)

Daniel Stevens Daniel Stevens (id:1304294)

特洛伊·布伦纳 Troy Brenna (id:1072126)

基诺·安东尼·佩西 Gino Anthony Pesi (id:1203096)

兰尼·琼 Lanny Joon (id:1314981)

罗杰·斯通伯纳 Roger Stoneburner (id:1158365)

Matthew Taylor Matthew Taylor (id:1158813)

马库斯·杨 Marcus Young (id:1028507)

Jimmy N. Roberts Jimmy N. Roberts (id:1295766)

Dustin Meier Dustin Meier (id:1291771)

本尼托·马丁内斯 Benito Martinez (id:1124343)

Nathan Bell (id:1225568)

Gokor Chivichyan Gokor Chivichyan (id:1073162)

罗曼·米蒂齐扬 Roman Mitichyan (id:1250894)

弗拉基米尔·奥尔洛夫 Vladimir Orlov (id:1293626)

Michael Duisenberg (id:1220981)

Christopher 'Critter' Antonucci Christopher 'Critter' Antonucci (id:1277307)

John Meier John Meier (id:1291773)

特雷弗·多诺万 Trevor Donovan (id:1169541)

迈克·史密斯 Mike Smith (id:1297908)

克里斯·巴斯克维尔 Chris Baskerville (id:1270072)

杰拉德·加纳 Jerald Garner (id:1201628)

大卫·希尔 David Hill (id:1231077)

泰·爱兰德 Trae Ireland (id:1000828)

卡丽娜·米歇尔 Karina Michel (id:1226724)

戴尔·帕文斯基 Dale Pavinski (id:1353549)

斯蒂夫·理查德·哈里斯 Steve Richard Harris (id:1101644)

William Packer William Packer (id:1293790)

保罗·海斯林格 Paul Haslinger (id:1037358)

David Abbott David Abbott (id:1276668)

Luis García Luis García (id:1284539)

道格拉斯·诺亚 Douglas Noe (id:1293238)

巴克·德洛姆 Bac DeLorme (id:1276511)

Suzette Barnett Suzette Barnett (id:1310350)

罗科·帕西尼诺 Rocco Passionino (id:1294053)

◎简 介

戈登(Idris Elba 饰)等五人组成的银行抢劫团伙每隔一年作案一次,其成员AJ(海登?克里斯滕森 Hayden Christensen 饰)、约翰(保罗?沃克 Paul Walker 饰)各有所长,抢劫所得和合理的投资令他们过着奢华的生活。在最近的一次劫案中,他们引起了铁腕警探杰克(马特?狄龙 Matt Dillon 饰)的注意。

戈登团伙昔日的成员里弗斯新近出狱,里弗斯在狱中结识了俄罗斯黑帮,并取得一份银行的内线情报。里弗斯邀请众人行劫,否则就拿回当年属于自己的那份抢劫所得,尽管时间仓促,不符合团伙一贯的行事风格,然而一番讨论之下,他们决定再次出手。与此同时,杰克以抢劫所用的C4炸药为突破口,发现了这次有俄罗斯黑帮参与的抢劫计划图纸。距离计划时间所剩无几,这次抢劫会导致怎样的结局?

  1. ##### MediaInfo ######

  2. General

  3. Unique ID : 297569198786146605469470092679829234281 (0xDFDDBE3853466889C1DDFF0BA50FA269)

  4. Complete name : Taker.2010.BluRay.1080p.DTS-HD.MA.5.1.x265.10bit-CTRLHD.mkv

  5. Format : Matroska

  6. Format version : Version 4

  7. File size : 7.73 GiB

  8. Duration : 1 h 47 min

  9. Overall bit rate mode : Variable

  10. Overall bit rate : 10.3 Mb/s

  11. Encoded date : UTC 2022-05-05 18:24:43

  12. Writing application : mkvmerge v66.0.0 ('Josie') 64-bit

  13. Writing library : libebml v1.4.2 + libmatroska v1.6.4


  14. Video

  15. ID : 1

  16. Format : HEVC

  17. Format/Info : High Efficiency Video Coding

  18. Format profile : Main [email protected]@Main

  19. Codec ID : V_MPEGH/ISO/HEVC

  20. Duration : 1 h 47 min

  21. Bit rate : 6 236 kb/s

  22. Width : 1 920 pixels

  23. Height : 800 pixels

  24. Display aspect ratio : 2.40:1

  25. Frame rate mode : Constant

  26. Frame rate : 23.976 (24000/1001/53354) FPS

  27. Color space : YUV

  28. Chroma subsampling : 4:2:0

  29. Bit depth : 10 bits

  30. Bits/(Pixel*Frame) : 0.169

  31. Stream size : 4.66 GiB (60%)

  32. Writing library : x265 3.5+20-17839cc0d:[Windows][MSVC 1930][64 bit] 10bit

  33. Encoding settings : cpuid=533541111039 / frame-threads=4 / numa-pools=16 / wpp / no-pmode / pme / no-psnr / no-ssim / log-level=2 / input-csp=1 / input-res=1920x800 / interlace=0 / total-frames=0 / level-idc=0 / high-tier=1 / uhd-bd=0 / ref=6 / no-allow-non-conformance / repeat-headers / annexb / no-aud / no-eob / no-eos / no-hrd / info / hash=0 / no-temporal-layers / no-open-gop / min-keyint=23 / keyint=250 / gop-lookahead=0 / bframes=8 / b-adapt=2 / b-pyramid / bframe-bias=0 / rc-lookahead=57 / lookahead-slices=5 / NTMzNTQ=uuDQuD2mJt9fsCf / scenecut=40 / no-hist-scenecut / radl=0 / no-splice / no-intra-refresh / ctu=64 / min-cu-size=8 / no-rect / no-amp / max-tu-size=32 / tu-inter-depth=1 / tu-intra-depth=1 / limit-tu=0 / rdoq-level=0 / dynamic-rd=0.00 / no-ssim-rd / signhide / no-tskip / nr-intra=0 / nr-inter=0 / no-constrained-intra / no-strong-intra-smoothing / max-merge=3 / limit-refs=1 / no-limit-modes / me=2 / subme=7 / merange=57 / temporal-mvp / no-frame-dup / no-hme / weightp / weightb / no-analyze-src-pics / deblock=0:0 / sao / no-sao-non-deblock / rd=4 / selective-sao=4 / early-skip / rskip / no-fast-intra / no-tskip-fast / no-cu-lossless / b-intra / no-splitrd-skip / rdpenalty=0 / psy-rd=2.00 / psy-rdoq=0.00 / no-rd-refine / no-lossless / cbqpoffs=0 / crqpoffs=0 / rc=crf / crf=15.0 / qcomp=0.60 / qpstep=4 / stats-write=0 / stats-read=0 / ipratio=1.40 / pbratio=1.30 / aq-mode=3 / aq-strength=1.00 / cutree / zone-count=0 / no-strict-cbr / qg-size=32 / no-rc-grain / qpmax=69 / qpmin=0 / no-const-vbv / sar=0 / overscan=0 / videoformat=5 / range=0 / colorprim=2 / transfer=2 / colormatrix=2 / chromaloc=0 / display-window=0 / cll=0,0 / min-luma=0 / max-luma=1023 / log2-max-poc-lsb=8 / vui-timing-info / vui-hrd-info / slices=1 / no-opt-qp-pps / no-opt-ref-list-length-pps / no-multi-pass-opt-rps / scenecut-bias=0.05 / hist-threshold=0.03 / no-opt-cu-delta-qp / aq-motion / no-hdr10 / no-hdr10-opt / no-dhdr10-opt / no-idr-recovery-sei / analysis-reuse-level=0 / analysis-save-reuse-level=0 / analysis-load-reuse-level=0 / scale-factor=0 / refine-intra=0 / refine-inter=0 / refine-mv=1 / refine-ctu-distortion=0 / no-limit-sao / ctu-info=0 / no-lowpass-dct / refine-analysis-type=0 / copy-pic=1 / max-ausize-factor=1.0 / no-dynamic-refine / no-single-sei / no-hevc-aq / no-svt / no-field / qp-adaptation-range=1.00 / scenecut-aware-qp=0conformance-window-offsets / right=0 / bottom=0 / NTMzNTQ= / decoder-max-rate=0 / no-vbv-live-multi-pass

  34. Default : Yes

  35. Forced : No


  36. Audio

  37. ID : 2

  38. Format : DTS XLL

  39. Format/Info : Digital Theater Systems

  40. Commercial name : DTS-HD Master Audio

  41. Codec ID : A_DTS

  42. Duration : 1 h 47 min

  43. Bit rate mode : Variable

  44. Bit rate : 4 017 kb/s

  45. Channel(s) : 6 channels

  46. Channel layout : C L R Ls Rs LFE

  47. Sampling rate : 48.0 kHz

  48. Frame rate : 93.750 FPS (512 SPF)

  49. Bit depth : 24 bits

  50. Compression mode : Lossless

  51. Stream size : 3.00 GiB (39%)

  52. Language : Twi

  53. Default : Yes

  54. Forced : No


  55. Text #1

  56. ID : 3

  57. Format : PGS

  58. Muxing mode : zlib

  59. Codec ID : S_HDMV/PGS

  60. Codec ID/Info : Picture based subtitle format used on BDs/HD-DVDs

  61. Duration : 1 h 40 min

  62. Bit rate : 39.9 kb/s

  63. Count of elements : 2560

  64. Stream size : 28.8 MiB (0%)

  65. Language : English

  66. Default : No

  67. Forced : No


  68. Text #2

  69. ID : 4

  70. Format : PGS

  71. Muxing mode : zlib

  72. Codec ID : S_HDMV/PGS

  73. Codec ID/Info : Picture based subtitle format used on BDs/HD-DVDs

  74. Duration : 1 h 40 min

  75. Bit rate : 22.3 kb/s

  76. Count of elements : 2558

  77. Stream size : 16.1 MiB (0%)

  78. Title : chs

  79. Language : Chinese

  80. Default : Yes

  81. Forced : No


  82. Text #3

  83. ID : 5

  84. Format : PGS

  85. Muxing mode : zlib

  86. Codec ID : S_HDMV/PGS

  87. Codec ID/Info : Picture based subtitle format used on BDs/HD-DVDs

  88. Duration : 1 h 40 min

  89. Bit rate : 22.4 kb/s

  90. Count of elements : 2558

  91. Stream size : 16.2 MiB (0%)

  92. Title : cht

  93. Language : Chinese

  94. Default : No

  95. Forced : No


  96. Text #4

  97. ID : 6

  98. Format : PGS

  99. Muxing mode : zlib

  100. Codec ID : S_HDMV/PGS

  101. Codec ID/Info : Picture based subtitle format used on BDs/HD-DVDs

  102. Duration : 1 h 40 min

  103. Bit rate : 42.0 kb/s

  104. Count of elements : 2558

  105. Stream size : 30.3 MiB (0%)

  106. Title : chs & eng

  107. Language : Chinese

  108. Default : No

  109. Forced : No


  110. Text #5

  111. ID : 7

  112. Format : PGS

  113. Muxing mode : zlib

  114. Codec ID : S_HDMV/PGS

  115. Codec ID/Info : Picture based subtitle format used on BDs/HD-DVDs

  116. Duration : 1 h 40 min

  117. Bit rate : 42.1 kb/s

  118. Count of elements : 2558

  119. Stream size : 30.4 MiB (0%)

  120. Title : cht & eng

  121. Language : Chinese

  122. Default : No

  123. Forced : No


  124. Menu

  125. 00:00:00.000 : :第 01 章

  126. 00:04:13.170 : :第 02 章

  127. 00:14:54.560 : :第 03 章

  128. 00:20:07.623 : :第 04 章

  129. 00:24:03.484 : :第 05 章

  130. 00:32:46.173 : :第 06 章

  131. 00:35:20.076 : :第 07 章

  132. 00:44:19.448 : :第 08 章

  133. 00:52:50.250 : :第 09 章

  134. 00:58:38.557 : :第 10 章

  135. 01:02:27.702 : :第 11 章

  136. 01:06:16.764 : :第 12 章

  137. 01:13:14.682 : :第 13 章

  138. 01:19:49.410 : :第 14 章

  139. 01:23:39.389 : :第 15 章

  140. 01:30:36.473 : :第 16 章




复制代码




文件下载


除非特别注明,本文『银行匪帮[简繁英字幕].Taker.2010.BluRay.1080p.DTS-HD.MA.5.1.x265.10bit-CTRLHD 7.73GB』来源于互联网机器人自动抓取,非本站原创。 浮游电影网不对本文拥有版权,如有侵犯,请联系邮箱:fuyouu#yandex.com[#换成@]投诉。我们会在15个工作日内删除。 但烦请转载时请标明出处:“本文转载于『浮游电影网』,原文地址:https://www.fuyouu.com/21914.html

评论吧骚年!

发表你的见解   

昵称*

E-mail*(建议输入,以便收到博主回复的提示邮件)

验证码*

您可以使用eMule或eMule Mod(Windows)、aMule(Win、Linux、Mac)等软件下载eD2k链接。。
eMule收藏集(.emulecollection)文件是您选中的所有链接的列表文件。eMule可以直接下载它们。
按住SHIFT键选择可以选中多个选择框。
可用文件名和大小选择器来选择文件。
文件名选择器帮您根据文件名称或后缀来选择文件。不分大小写。
符号使用:
和:空格( )、+
不包含:-
或:|
转义:一对英文引号("");
匹配开头:^
匹配结尾:$
例如:
选中所有名称中包含有“eMule”或“0.49c”字眼,但不包含有“exe”字眼的:emule|0.49c -exe
选中所有名称的开头是“eMule”,结尾是“0.49c”的:^emule 0.49c$
选中所有名称中带有“eMule 0.49c”的(必须是“eMule 0.49c”,中间没有别的字符,不能是“eMule fake 0.49c”),需要转义:"emule 0.49c"
大小选择器帮您根据文件大小选择文件。