当前位置: 首页 >> 欧美电影 >> 哈迪塞镇之战[简体字幕].Battle.for.Haditha.2007.1080p.BluRay.DTS.x265-10bit-ENTHD 5.99GB >> 正文

哈迪塞镇之战[简体字幕].Battle.for.Haditha.2007.1080p.BluRay.DTS.x265-10bit-ENTHD 5.99GB

2022年05月06日 14:13:22     电影发布:来源于网络     电影分类:欧美电影     评论(0)    

◎译 名 哈迪塞镇之战 / 哈迪塞报复行动 / 哈迪萨报复行动

◎片 名 Battle for Haditha

◎年 代 2007

◎产 地 英国

◎类 别 剧情 / 历史 / 战争

◎语 言 英语 / 阿拉伯语

◎上映日期 2007-09-11

◎IMDb链接 https://www.imdb.com/title/tt0870211/

◎豆瓣评分 7.5/10 (4117人评价)

◎豆瓣链接 https://movie.douban.com/subject/2263156/

◎片 长 93分钟

◎导 演 尼克·布鲁姆菲尔德 Nick Broomfield (id:1005070)

◎编 剧 尼克·布鲁姆菲尔德 Nick Broomfield (id:1005070)

◎演 员 Yasmine Hanani Yasmine Hanani (id:1196308)

Joe Chacon Joe Chacon (id:1207294)

托马斯·亨尼赛 Thomas Hennessy (id:1235954)

Matthew Knoll (id:1256193)

尼克·布鲁姆菲尔德 Nick Broomfield (id:1005070)

查尔斯·芬奇 Charles Finch (id:1023383)

尼克·莱尔德-克劳斯 Nick Laird-Clowes (id:1105049)

Daniel Hubbard Daniel Hubbard (id:1055343)

Deedra Ricketts Deedra Ricketts (id:1138599)

大卫·布赖恩 David Bryan (id:1279511)

Cliff Wallace Cliff Wallace (id:1300328)

◎简 介

2005年11月,伊拉克西部城市哈迪塞(Haditha)。两名伊拉克武装分子在路中央埋下自制的炸弹,炸毁途经此地的美军陆战队的汽车,一等兵米格尔?特拉泽斯在爆炸中身亡。此举激怒了陆战队的士兵,他们迅速对周边的伊拉克平民进行报复性的袭击,包括孩童在内共计24人遇害,此举震惊世界。

本片根据真实事件改编。

◎获奖情况 (共1项)

第55届圣塞巴斯蒂安国际电影节 (2007)

最佳导演银贝壳奖

└──尼克·布鲁姆菲尔德 (id:1005070)

  1. ##### MediaInfo ######

  2. General

  3. Unique ID : 130454513826064169367237168806900517931 (0x6224A01DDF372D78E8A43725F717CC2B)

  4. Complete name : Battle.for.Haditha.2007.1080p.BluRay.DTS.x265-10bit-ENTHD.mkv

  5. Format : Matroska

  6. Format version : Version 4

  7. File size : 5.99 GiB

  8. Duration : 1 h 36 min

  9. Overall bit rate : 8 845 kb/s

  10. Movie name : Battle for Haditha 2007 1080p BluRay DTS x265-10bit-HDS

  11. Encoded date : UTC 2022-05-02 04:46:35

  12. Writing application : mkvmerge v38.0.0 ('The Silent Type') 64-bit

  13. Writing library : libebml v1.3.9 + libmatroska v1.5.2


  14. Video

  15. ID : 1

  16. Format : HEVC

  17. Format/Info : High Efficiency Video Coding

  18. Format profile : Main [email protected]@High

  19. Codec ID : V_MPEGH/ISO/HEVC

  20. Duration : 1 h 36 min

  21. Bit rate : 7 305 kb/s

  22. Width : 1 920 pixels

  23. Height : 1 072 pixels

  24. Display aspect ratio : 16:9

  25. Frame rate mode : Constant

  26. Frame rate : 23.976 (24000/1001/53354) FPS

  27. Color space : YUV

  28. Chroma subsampling : 4:2:0

  29. Bit depth : 10 bits

  30. Bits/(Pixel*Frame) : 0.148

  31. Stream size : 4.95 GiB (83%)

  32. Title : [email protected]

  33. Writing library : x265 - H.265/HEVC codec

  34. Default : Yes

  35. Forced : No


  36. Audio

  37. ID : 2

  38. Format : DTS

  39. Format/Info : Digital Theater Systems

  40. Codec ID : A_DTS

  41. Duration : 1 h 36 min

  42. Bit rate mode : Constant

  43. Bit rate : 1 509 kb/s

  44. Channel(s) : 6 channels

  45. Channel layout : C L R Ls Rs LFE

  46. Sampling rate : 48.0 kHz

  47. Frame rate : 93.750 FPS (512 SPF)

  48. Bit depth : 24 bits

  49. Compression mode : Lossy

  50. Stream size : 1.02 GiB (17%)

  51. Title : English

  52. Language : English

  53. Default : Yes

  54. Forced : No


  55. Text #1

  56. ID : 3

  57. Format : PGS

  58. Muxing mode : zlib

  59. Codec ID : S_HDMV/PGS

  60. Codec ID/Info : Picture based subtitle format used on BDs/HD-DVDs

  61. Duration : 1 h 30 min

  62. Bit rate : 28.3 kb/s

  63. Count of elements : 1976

  64. Stream size : 18.4 MiB (0%)

  65. Title : CHS

  66. Language : Chinese

  67. Default : Yes

  68. Forced : No


  69. Text #2

  70. ID : 4

  71. Format : PGS

  72. Muxing mode : zlib

  73. Codec ID : S_HDMV/PGS

  74. Codec ID/Info : Picture based subtitle format used on BDs/HD-NewHD

复制代码



文件下载


除非特别注明,本文『哈迪塞镇之战[简体字幕].Battle.for.Haditha.2007.1080p.BluRay.DTS.x265-10bit-ENTHD 5.99GB』来源于互联网机器人自动抓取,非本站原创。 浮游电影网不对本文拥有版权,如有侵犯,请联系邮箱:fuyouu#yandex.com[#换成@]投诉。我们会在15个工作日内删除。 但烦请转载时请标明出处:“本文转载于『浮游电影网』,原文地址:https://www.fuyouu.com/21909.html

评论吧骚年!

发表你的见解   

昵称*

E-mail*(建议输入,以便收到博主回复的提示邮件)

验证码*

您可以使用eMule或eMule Mod(Windows)、aMule(Win、Linux、Mac)等软件下载eD2k链接。。
eMule收藏集(.emulecollection)文件是您选中的所有链接的列表文件。eMule可以直接下载它们。
按住SHIFT键选择可以选中多个选择框。
可用文件名和大小选择器来选择文件。
文件名选择器帮您根据文件名称或后缀来选择文件。不分大小写。
符号使用:
和:空格( )、+
不包含:-
或:|
转义:一对英文引号("");
匹配开头:^
匹配结尾:$
例如:
选中所有名称中包含有“eMule”或“0.49c”字眼,但不包含有“exe”字眼的:emule|0.49c -exe
选中所有名称的开头是“eMule”,结尾是“0.49c”的:^emule 0.49c$
选中所有名称中带有“eMule 0.49c”的(必须是“eMule 0.49c”,中间没有别的字符,不能是“eMule fake 0.49c”),需要转义:"emule 0.49c"
大小选择器帮您根据文件大小选择文件。