当前位置: 首页 >> 国产电影 >> 双旗镇刀客[国语音轨/简体字幕].The.Swordsman.in.Double.Flag.Town.1991.BluRay.Repack-MiniHD 5.57GB >> 正文

双旗镇刀客[国语音轨/简体字幕].The.Swordsman.in.Double.Flag.Town.1991.BluRay.Repack-MiniHD 5.57GB

2022年05月06日 13:54:56     电影发布:来源于网络     电影分类:国产电影     评论(0)    

◎译 名 双旗镇刀客 / The Swordsman in Double Flag Town

◎年 代 1991

◎产 地 中国大陆

◎类 别 动作 / 冒险 / 武侠

◎语 言 汉语普通话

◎上映日期 1991-05-17(中国大陆)

◎IMDb链接 https://www.imdb.com/title/tt0102917/

◎豆瓣评分 8.3/10 (39714人评价)

◎豆瓣链接 https://movie.douban.com/subject/1307812/

◎片 长 91分钟

◎导 演 何平 Ping He (id:1275272)

◎编 剧 何平 Ping He (id:1275272)

杨争光 Zhengguang Yang (id:1320812)

◎演 员 高一玮 Yiwei Gao (id:1317898)

赵玛娜 Mana Zhao (id:1317899)

常江 Jiang Chang (id:1317900)

孙海英 Haiying Sun (id:1274237)

王刚 Gang Wang (id:1374387)

陶龙 Long Tao (id:1352773)

马德林 Delin Ma (id:1321810)

钱运选 Yunxuan Qian (id:1367288)

◎简 介

中国西部,黄沙漫天,马嘶人怒。自幼跟随父亲操练关西无极刀法的孩哥(高伟 饰)遵照父亲的遗嘱,来到双旗镇寻找指腹为婚的妻子好妹(赵玛娜 饰)。只叹人情冷暖,世态炎凉,好妹及其父亲瘸子(常江 饰)毫不待见这个男孩。婚期无望,孩哥只得暂时在瘸子的店里当小伙计。一日,土匪二爷意欲强暴好妹,结果为孩哥所杀。此举惹恼了长年盘踞双旗镇的土匪头子一刀仙(孙海英 饰)。由此惹得滚滚狂沙中刀光剑影,鲜血四溅……

本片荣获1991年中国电影金鸡奖最佳美术奖、1992年东京第三届夕张国际惊险与科幻电影节最佳影片大奖、1992年第五届《中时晚报》电影奖商业映演类年度大陆优秀电影奖、1993年柏林电影节国际影评奖。

◎获奖情况 (共2项)

第11届中国电影金鸡奖 (1991)

最佳摄影(提名)

└──马德林 (id:1321810)

最佳美术

└──钱运选 (id:1367288)

  1. ##### MediaInfo ######

  2. General

  3. Unique ID : 197414357760134992494739427366245204472 (0x94849F4F75E703FB4393490B933781F8)

  4. Complete name : The.Swordsman.in.Double.Flag.Town.1991.BluRay.1080p.x265.FLAC.Reapck-MiniHD.mkv

  5. Format : Matroska

  6. Format version : Version 4

  7. File size : 5.57 GiB

  8. Duration : 1 h 31 min

  9. Overall bit rate mode : Variable

  10. Overall bit rate : 8 721 kb/s

  11. Movie name : The Swordsman in Double Flag Town [1992] BluRay 1080p - FRDS

  12. Encoded date : UTC 2022-05-04 22:30:39

  13. Writing application : mkvmerge v67.0.0 ('Under Stars') 64-bit

  14. Writing library : libebml v1.4.2 + libmatroska v1.6.4


  15. Video

  16. ID : 1

  17. Format : HEVC

  18. Format/Info : High Efficiency Video Coding

  19. Format profile : Main [email protected]@High

  20. Codec ID : V_MPEGH/ISO/HEVC

  21. Duration : 1 h 31 min

  22. Bit rate : 8 403 kb/s

  23. Width : 1 920 pixels

  24. Height : 1 036 pixels

  25. Display aspect ratio : 1.85:1

  26. Frame rate mode : Constant

  27. Frame rate : 24.000 FPS

  28. Color space : YUV

  29. Chroma subsampling : 4:2:0

  30. Bit depth : 10 bits

  31. Bits/(Pixel*Frame) : 0.176

  32. Stream size : 5.37 GiB (96%)

  33. Writing library : x265 3.2+2-g238998f4b+26:[Windows][GCC 8.3.0][64 bit] Yuuki 10bit+8bit+12bit

  34. Encoding settings : rc=crf / crf=19.0000 / qcomp=0.70 / qpstep=4 / stats-write=0 / stats-read=0 / vbv-maxrate=50000 / vbv-bufsize=50000 / vbv-init=0.9 / crf-max=0.0 / crf-min=0.0 / no-lossless / no-cu-lossless / aq-mode=1 / aq-strength=0.90 / cbqpoffs=-3 / crqpoffs=-3 / ipratio=1.40 / pbratio=1.30 / psy-rd=2.00 / psy-rdoq=3.00 / deblock=-1:-1 / ref=5 / limit-refs=0 / no-limit-modes / bframes=9 / b-adapt=2 / bframe-bias=0 / b-pyramid / b-intra / weightp / weightb / min-keyint=24 / max-keyint=360 / rc-lookahead=60 / gop-lookahead=0 / NTMzNTQ=uuDQuD2mJt9fsCf / scenecut=40 / radl=0 / max-cu-size=32 / min-cu-size=8 / me=3 / subme=4 / merange=25 / rdoq-level=2 / rd=5 / rdpenalty=1 / dynamic-rd=0.00 / no-rd-refine / ----- / cutree / no-sao / rect / amp / no-open-gop / wpp / no-pmode / no-pme / no-psnr / no-ssim / nr-intra=0 / nr-inter=0 / no-constrained-intra / no-strong-intra-smoothing / max-tu-size=16 / tu-inter-depth=2 / tu-intra-depth=2 / limit-tu=0 / qg-size=8 / qpmax=69 / qpmin=0 / ----- / cpuid=533541111039 / frame-threads=4 / numa-pools=24 / log-level=2 / input-csp=1 / input-res=1920x1036 / interlace=0 / level-idc=0 / high-tier=1 / uhd-bd=0 / no-allow-non-conformance / repeat-headers / no-aud / no-hrd / info / hash=0 / no-temporal-layers / lookahead-slices=0 / no-splice / no-intra-refresh / no-ssim-rd / signhide / no-tskip / max-merge=5 / temporal-mvp / no-hme / no-analyze-src-pics / no-sao-non-deblock / selective-sao=0 / no-early-skip / no-rskip / no-fast-intra / no-tskip-fast / no-splitrd-skip / zone-count=0 / no-strict-cbr / no-rc-grain / no-const-vbv / sar=0 / overscan=0 / videoformat=5 / range=0 / colorprim=1 / transfer=1 / colormatrix=1 / chromaloc=0 / display-window=0 / cll=0,0 / min-luma=0 / max-luma=1023 / log2-max-poc-lsb=8 / vui-timing-info / vui-hrd-info / slices=1 / no-opt-qp-pps / no-opt-ref-list-length-pps / no-multi-pass-opt-rps / scenecut-bias=0.05 / no-opt-cu-delta-qp / no-aq-motion / no-hdr / no-hdr-opt / no-dhdr10-opt / no-idr-recovery-sei / analysis-reuse-level=5 / scale-factor=0 / refine-intra=0 / refine-inter=0 / refine-mv=1 / refine-ctu-distortion=0 / no-limit-sao / ctu-info=0 / no-lowpass-dct / refine-analysis-type=0 / copy-pic=1 / max-ausize-factor=1.0 / no-dynamic-refine / no-single-sei / no-hevc-aq / no-svt / no-field / qp-adaptation-range=1.00

  35. Default : Yes

  36. Forced : No

  37. Color range : Limited

  38. Color primaries : BT.709

  39. Transfer characteristics : BT.709

  40. Matrix coefficients : BT.709


  41. Audio

  42. ID : 2

  43. Format : FLAC

  44. Format/Info : Free Lossless Audio Codec

  45. Codec ID : A_FLAC

  46. Duration : 1 h 31 min

  47. Bit rate mode : Variable

  48. Bit rate : 304 kb/s

  49. Channel(s) : 1 channel

  50. Channel layout : C

  51. Sampling rate : 48.0 kHz

  52. Frame rate : 10.417 FPS (4608 SPF)

  53. Bit depth : 16 bits

  54. Compression mode : Lossless

  55. Stream size : 199 MiB (3%)

  56. Writing library : Lavf58.76.100

  57. Language : Chinese

  58. Default : Yes

  59. Forced : No


  60. Text #1

  61. ID : 3

  62. Format : PGS

  63. Muxing mode : zlib

  64. Codec ID : S_HDMV/PGS

  65. Codec ID/Info : Picture based subtitle format used on BDs/HD-DVDs

  66. Duration : 1 h 29 min

  67. Bit rate : 9 254 b/s

  68. Count of elements : 819

  69. Stream size : 5.91 MiB (0%)

  70. Language : Chinese

  71. Default : Yes

  72. Forced : No


  73. Text #2

  74. ID : 4

  75. Format : PGS

  76. Muxing mode : zlib

  77. Codec ID : S_HDMV/PGS

  78. Codec ID/Info : Picture based subtitle format used on BDs/HD-NewHD

复制代码



文件下载


除非特别注明,本文『双旗镇刀客[国语音轨/简体字幕].The.Swordsman.in.Double.Flag.Town.1991.BluRay.Repack-MiniHD 5.57GB』来源于互联网机器人自动抓取,非本站原创。 浮游电影网不对本文拥有版权,如有侵犯,请联系邮箱:fuyouu#yandex.com[#换成@]投诉。我们会在15个工作日内删除。 但烦请转载时请标明出处:“本文转载于『浮游电影网』,原文地址:https://www.fuyouu.com/21895.html

评论吧骚年!

发表你的见解   

昵称*

E-mail*(建议输入,以便收到博主回复的提示邮件)

验证码*

您可以使用eMule或eMule Mod(Windows)、aMule(Win、Linux、Mac)等软件下载eD2k链接。。
eMule收藏集(.emulecollection)文件是您选中的所有链接的列表文件。eMule可以直接下载它们。
按住SHIFT键选择可以选中多个选择框。
可用文件名和大小选择器来选择文件。
文件名选择器帮您根据文件名称或后缀来选择文件。不分大小写。
符号使用:
和:空格( )、+
不包含:-
或:|
转义:一对英文引号("");
匹配开头:^
匹配结尾:$
例如:
选中所有名称中包含有“eMule”或“0.49c”字眼,但不包含有“exe”字眼的:emule|0.49c -exe
选中所有名称的开头是“eMule”,结尾是“0.49c”的:^emule 0.49c$
选中所有名称中带有“eMule 0.49c”的(必须是“eMule 0.49c”,中间没有别的字符,不能是“eMule fake 0.49c”),需要转义:"emule 0.49c"
大小选择器帮您根据文件大小选择文件。