当前位置: 首页 >> 欧美电影 >> 鬼玩人2[简繁英字幕].Evil.Dead.2.1987.BluRay.1080p.DTS-HD.MA5.1.x265.10bit-ALT 8.18GB >> 正文

鬼玩人2[简繁英字幕].Evil.Dead.2.1987.BluRay.1080p.DTS-HD.MA5.1.x265.10bit-ALT 8.18GB

2022年05月06日 13:53:11     电影发布:来源于网络     电影分类:欧美电影     评论(0)    

◎译 名 鬼玩人2 / 尸变 2

◎片 名 Evil Dead II

◎年 代 1987

◎产 地 美国

◎类 别 喜剧 / 恐怖

◎语 言 英语

◎上映日期 1987-03-13

◎IMDb链接 https://www.imdb.com/title/tt0092991/

◎豆瓣评分 7.3/10 (9229人评价)

◎豆瓣链接 https://movie.douban.com/subject/1293448/

◎片 长 84 分钟

◎导 演 山姆·雷米 Sam Raimi (id:1027159)

◎编 剧 山姆·雷米 Sam Raimi (id:1027159)

斯科特·斯皮格尔 Scott Spiegel (id:1014264)

◎演 员 布鲁斯·坎贝尔 Bruce Campbell (id:1069816)

丹·希克斯 Dan Hicks (id:1096157)

凯茜·韦斯利·德帕瓦 Kassie Wesley DePaiva (id:1081793)

泰德·雷米 Ted Raimi (id:1036535)

约瑟夫·洛杜卡 Joseph LoDuca (id:1276600)

马克·肖斯特罗姆 Mark Shostrom (id:1297519)

霍华德·伯杰 Howard Berger (id:1278442)

温迪·贝尔 Wendy Bell (id:1278278)

Doug Beswick Doug Beswick (id:1278546)

◎简 介

青年艾许(布鲁斯·坎贝尔 Bruce Campbell 饰)开车载着女友琳达(丹尼丝·比克斯勒 Denise Bixler 饰)外出游玩,途中他们因故落脚于一间无人居住的林中木屋。艾许在书房内发现一本书和录音设备,其间记录了古代史教授诺比(约翰·皮克斯 John Peakes 饰)造访康达城堡并发现失踪长达上千年的《死者之书》的全过程。当录音带中教授念起召唤邪灵的咒语时,似乎沉睡已久的恶魔就此苏醒。琳达遭到攻击后化身恶魔,艾许被迫杀死女友自己也无法避免被侵蚀的命运。当他从昏迷中醒来后,意识到自己已被邪灵困入绝地,无法逃开。

夜幕降临,魔鬼的狂欢拉开帷幕,艾许的难忘之夜就此开始……

  1. ##### MediaInfo ######

  2. General

  3. Unique ID : 216857763481898027270654108337890093020 (0xA3254939AC2C017E701EC08FC4E767DC)

  4. Complete name : Evil.Dead.2.1987.BluRay.1080p.DTS-HD.MA5.1.x265.10bit-ALT.mkv

  5. Format : Matroska

  6. Format version : Version 4

  7. File size : 8.18 GiB

  8. Duration : 1 h 24 min

  9. Overall bit rate mode : Variable

  10. Overall bit rate : 13.9 Mb/s

  11. Encoded date : UTC 2022-05-04 03:55:13

  12. Writing application : mkvmerge v49.0.0 ('Sick Of Losing Soulmates') 64-bit

  13. Writing library : libebml v1.4.0 + libmatroska v1.6.1


  14. Video

  15. ID : 1

  16. Format : HEVC

  17. Format/Info : High Efficiency Video Coding

  18. Format profile : Main [email protected]@High

  19. Codec ID : V_MPEGH/ISO/HEVC

  20. Duration : 1 h 24 min

  21. Bit rate : 11.5 Mb/s

  22. Width : 1 920 pixels

  23. Height : 1 038 pixels

  24. Display aspect ratio : 1.85:1

  25. Frame rate mode : Constant

  26. Frame rate : 23.976 (24000/1001/53354) FPS

  27. Color space : YUV

  28. Chroma subsampling : 4:2:0

  29. Bit depth : 10 bits

  30. Bits/(Pixel*Frame) : 0.241

  31. Stream size : 6.76 GiB (83%)

  32. Title : HEVC, [email protected]@High, 24/1.001 fps @ 11494 kbps

  33. Writing library : x265 3.5+36-1f2c8da77:[Windows][GCC 11.2.0][64 bit] 10bit

  34. Encoding settings : cpuid=533541111039 / frame-threads=4 / numa-pools=20 / wpp / no-pmode / no-pme / no-psnr / no-ssim / log-level=2 / input-csp=1 / input-res=1920x1038 / interlace=0 / total-frames=121176 / level-idc=51 / high-tier=1 / uhd-bd=0 / ref=5 / no-allow-non-conformance / no-repeat-headers / annexb / no-aud / no-eob / no-eos / no-hrd / info / hash=0 / no-temporal-layers / open-gop / min-keyint=24 / keyint=240 / gop-lookahead=0 / bframes=6 / b-adapt=2 / b-pyramid / bframe-bias=0 / rc-lookahead=40 / lookahead-slices=0 / NTMzNTQ=uuDQuD2mJt9fsCf / scenecut=40 / no-hist-scenecut / radl=0 / no-splice / no-intra-refresh / ctu=32 / min-cu-size=8 / no-rect / no-amp / max-tu-size=32 / tu-inter-depth=3 / tu-intra-depth=3 / limit-tu=4 / rdoq-level=2 / dynamic-rd=0.00 / no-ssim-rd / signhide / no-tskip / nr-intra=0 / nr-inter=0 / no-constrained-intra / no-strong-intra-smoothing / max-merge=4 / limit-refs=1 / limit-modes / me=3 / subme=4 / merange=25 / temporal-mvp / no-frame-dup / no-hme / weightp / weightb / no-analyze-src-pics / deblock=-3:-3 / no-sao / no-sao-non-deblock / rd=6 / selective-sao=0 / no-early-skip / rskip / no-fast-intra / no-tskip-fast / no-cu-lossless / b-intra / no-splitrd-skip / rdpenalty=0 / psy-rd=2.00 / psy-rdoq=1.00 / no-rd-refine / no-lossless / cbqpoffs=-2 / crqpoffs=-2 / rc=crf / crf=18.5 / qcomp=0.65 / qpstep=4 / stats-write=0 / stats-read=0 / vbv-maxrate=80000 / vbv-bufsize=80000 / vbv-init=0.9 / min-vbv-fullness=50.0 / max-vbv-fullness=80.0 / crf-max=0.0 / crf-min=0.0 / ipratio=1.40 / pbratio=1.30 / aq-mode=2 / aq-strength=0.85 / cutree / zone-count=0 / no-strict-cbr / qg-size=32 / no-rc-grain / qpmax=69 / qpmin=0 / no-const-vbv / sar=1 / overscan=0 / videoformat=5 / range=0 / colorprim=1 / transfer=1 / colormatrix=1 / chromaloc=0 / display-window=0 / cll=0,0 / min-luma=0 / max-luma=1023 / log2-max-poc-lsb=8 / vui-timing-info / vui-hrd-info / slices=1 / no-opt-qp-pps / no-opt-ref-list-length-pps / no-multi-pass-opt-rps / scenecut-bias=0.05 / hist-threshold=0.03 / no-opt-cu-delta-qp / no-aq-motion / no-hdr10 / no-hdr10-opt / no-dhdr10-opt / no-idr-recovery-sei / analysis-reuse-level=0 / analysis-save-reuse-level=0 / analysis-load-reuse-level=0 / scale-factor=0 / refine-intra=0 / refine-inter=0 / refine-mv=1 / refine-ctu-distortion=0 / no-limit-sao / ctu-info=0 / no-lowpass-dct / refine-analysis-type=0 / copy-pic=1 / max-ausize-factor=1.0 / no-dynamic-refine / no-single-sei / no-hevc-aq / no-svt / no-field / qp-adaptation-range=1.00 / scenecut-aware-qp=0conformance-window-offsets / right=0 / bottom=0 / NTMzNTQ= / decoder-max-rate=0 / no-vbv-live-multi-pass

  35. Language : English

  36. Default : Yes

  37. Forced : No

  38. Color range : Limited

  39. Color primaries : BT.709

  40. Transfer characteristics : BT.709

  41. Matrix coefficients : BT.709


  42. Audio #1

  43. ID : 2

  44. Format : DTS XLL

  45. Format/Info : Digital Theater Systems

  46. Commercial name : DTS-HD Master Audio

  47. Codec ID : A_DTS

  48. Duration : 1 h 24 min

  49. Bit rate mode : Variable

  50. Bit rate : 2 152 kb/s

  51. Channel(s) : 6 channels

  52. Channel layout : C L R Ls Rs LFE

  53. Sampling rate : 48.0 kHz

  54. Frame rate : 93.750 FPS (512 SPF)

  55. Bit depth : 16 bits

  56. Compression mode : Lossless

  57. Stream size : 1.27 GiB (15%)

  58. Title : English DTS-HD Master Audio 5.1 @ 2153 kbps

  59. Language : English

  60. Default : Yes

  61. Forced : No


  62. Audio #2

  63. ID : 3

  64. Format : AC-3

  65. Format/Info : Audio Coding 3

  66. Commercial name : Dolby Digital

  67. Codec ID : A_AC3

  68. Duration : 1 h 24 min

  69. Bit rate mode : Constant

  70. Bit rate : 192 kb/s

  71. Channel(s) : 2 channels

  72. Channel layout : L R

  73. Sampling rate : 48.0 kHz

  74. Frame rate : 31.250 FPS (1536 SPF)

  75. Compression mode : Lossy

  76. Stream size : 116 MiB (1%)

  77. Title : English Dolby Digital Audio 2.0 @ 192 kbps Commentary

  78. Language : English

  79. Service kind : Complete Main

  80. Default : No

  81. Forced : No


  82. Text #1

  83. ID : 4

  84. Format : PGS

  85. Codec ID : S_HDMV/PGS

  86. Codec ID/Info : Picture based subtitle format used on BDs/HD-DVDs

  87. Duration : 1 h 20 min

  88. Bit rate : 17.1 kb/s

  89. Count of elements : 1524

  90. Stream size : 9.87 MiB (0%)

  91. Title : Eng/SUP SDH

  92. Language : English

  93. Default : No

  94. Forced : No


  95. Text #2

  96. ID : 5

  97. Format : PGS

  98. Codec ID : S_HDMV/PGS

  99. Codec ID/Info : Picture based subtitle format used on BDs/HD-DVDs

  100. Duration : 1 h 20 min

  101. Bit rate : 32.5 kb/s

  102. Count of elements : 7839

  103. Stream size : 18.7 MiB (0%)

  104. Title : Eng/SUP

  105. Language : English

  106. Default : No

  107. Forced : No


  108. Text #3

  109. ID : 6

  110. Format : PGS

  111. Codec ID : S_HDMV/PGS

  112. Codec ID/Info : Picture based subtitle format used on BDs/HD-DVDs

  113. Duration : 1 h 20 min

  114. Bit rate : 9 419 b/s

  115. Count of elements : 728

  116. Stream size : 5.42 MiB (0%)

  117. Title : Chs/SUP 简体

  118. Language : Chinese

  119. Default : Yes

  120. Forced : No


  121. Text #4

  122. ID : 7

  123. Format : PGS

  124. Codec ID : S_HDMV/PGS

  125. Codec ID/Info : Picture based subtitle format used on BDs/HD-DVDs

  126. Duration : 1 h 20 min

  127. Bit rate : 9 719 b/s

  128. Count of elements : 728

  129. Stream size : 5.60 MiB (0%)

  130. Title : Cht/SUP 繁体

  131. Language : Chinese

  132. Default : No

  133. Forced : No


  134. Menu

  135. 00:00:00.000 : en:第 01 章

  136. 00:01:57.242 : en:第 02 章

  137. 00:05:25.325 : en:第 03 章

  138. 00:06:39.232 : en:第 04 章

  139. 00:10:37.595 : en:第 05 章

  140. 00:17:24.085 : en:第 06 章

  141. 00:20:19.635 : en:第 07 章

  142. 00:22:36.230 : en:第 08 章

  143. 00:28:20.824 : en:第 09 章

  144. 00:34:05.043 : en:第 10 章

  145. 00:35:36.551 : en:第 11 章

  146. 00:40:10.366 : en:第 12 章

  147. 00:42:29.172 : en:第 13 章

  148. 00:46:21.779 : en:第 14 章

  149. 00:51:59.158 : en:第 15 章

  150. 00:53:39.007 : en:第 16 章

  151. 00:58:41.435 : en:第 17 章

  152. 01:06:21.269 : en:第 18 章

  153. 01:07:24.040 : en:第 19 章

  154. 01:11:36.000 : en:第 20 章

  155. 01:14:19.955 : en:第 21 章

  156. 01:16:38.511 : en:第 22 章

  157. 01:18:56.607 : en:第 23 章

  158. 01:20:55.851 : en:第 24 章




复制代码



文件下载


除非特别注明,本文『鬼玩人2[简繁英字幕].Evil.Dead.2.1987.BluRay.1080p.DTS-HD.MA5.1.x265.10bit-ALT 8.18GB』来源于互联网机器人自动抓取,非本站原创。 浮游电影网不对本文拥有版权,如有侵犯,请联系邮箱:fuyouu#yandex.com[#换成@]投诉。我们会在15个工作日内删除。 但烦请转载时请标明出处:“本文转载于『浮游电影网』,原文地址:https://www.fuyouu.com/21893.html

评论吧骚年!

发表你的见解   

昵称*

E-mail*(建议输入,以便收到博主回复的提示邮件)

验证码*

您可以使用eMule或eMule Mod(Windows)、aMule(Win、Linux、Mac)等软件下载eD2k链接。。
eMule收藏集(.emulecollection)文件是您选中的所有链接的列表文件。eMule可以直接下载它们。
按住SHIFT键选择可以选中多个选择框。
可用文件名和大小选择器来选择文件。
文件名选择器帮您根据文件名称或后缀来选择文件。不分大小写。
符号使用:
和:空格( )、+
不包含:-
或:|
转义:一对英文引号("");
匹配开头:^
匹配结尾:$
例如:
选中所有名称中包含有“eMule”或“0.49c”字眼,但不包含有“exe”字眼的:emule|0.49c -exe
选中所有名称的开头是“eMule”,结尾是“0.49c”的:^emule 0.49c$
选中所有名称中带有“eMule 0.49c”的(必须是“eMule 0.49c”,中间没有别的字符,不能是“eMule fake 0.49c”),需要转义:"emule 0.49c"
大小选择器帮您根据文件大小选择文件。