当前位置: 首页 >> 动画电影 >> 青春变形记[国粤英多音轨/简繁英字幕].Turning.Red.2022.2160p.HDR.UHD.BluRay.TrueHD.7.1.Atmos.3Audio.x265-10bit-ENTHD 1 >> 正文

青春变形记[国粤英多音轨/简繁英字幕].Turning.Red.2022.2160p.HDR.UHD.BluRay.TrueHD.7.1.Atmos.3Audio.x265-10bit-ENTHD 1

2022年05月05日 10:29:59     电影发布:来源于网络     电影分类:动画电影     评论(0)    

◎译 名 青春变形记 / 熊抱青春记(港) / 青春养成记(台) / 变红

◎片 名 Turning Red

◎年 代 2022

◎产 地 美国

◎类 别 喜剧 / 动画 / 奇幻 / 冒险

◎语 言 英语

◎上映日期 2022-03-11(美国网络)

◎IMDb链接 https://www.imdb.com/title/tt8097030/

◎豆瓣评分 8.2/10 (202219人评价)

◎豆瓣链接 https://movie.douban.com/subject/35284253/

◎片 长 100分钟

◎导 演 石之予 Domee Shi (id:1390878)

◎编 剧 石之予 Domee Shi (id:1390878)

茱莉亚·赵 Julia Cho (id:1469079)

莎拉·施特莱歇尔 Sarah Streicher (id:1469080)

◎演 员 姜晋安 Rosalie Chiang (id:1459557)

吴珊卓 Sandra Oh (id:1010565)

艾娃·摩士 Ava Morse (id:1463264)

麦特里伊·拉玛克里斯南 Maitreyi Ramakrishnan (id:1436473)

朴惠仁 Hyein Park (id:1468846)

奥赖恩·李 Orion Lee (id:1429493)

何炜晴 Wai Ching Ho (id:1094304)

特里斯坦·艾瑞克·陈 Tristan Allerick Chen (id:1464242)

吴汉章 James Hong (id:1031824)

菲尼亚斯·奥康奈尔 Finneas O'Connell (id:1431179)

乔丹·费舍 Jordan Fisher (id:1385534)

托菲尔-恩戈 Topher Ngo (id:1469084)

格雷森·维拉纽瓦 Grayson Villanueva (id:1469085)

乔什·列维 Josh Levi (id:1469086)

洛瑞·坦·齐恩 Lori Tan Chinn (id:1360821)

雪莉·可拉 Sherry Cola (id:1469082)

莉莉安·林 Lillian Lim (id:1469083)

艾迪森·钱德勒 Addison Chandler (id:1469087)

莉莉·桑费利波 Lily Sanfelippo (id:1469088)

萨沙·罗伊茨 Sasha Roiz (id:1193201)

安妮-玛丽 Anne-Marie (id:1457068)

Mia Tagano (id:1469081)

路德维格·戈兰松 Ludwig G?ransson (id:1265962)

◎简 介

13岁的女孩小美(姜晋安 配音)成长于一个典型的亚裔家庭之中,家里经营着一间作为旅游景点对外开放的祠堂,祠堂里供奉着家族的祖先。小美的母亲(吴珊卓 Sandra Oh 饰)是一个对孩子关怀备至又略微有些神经质的女人,在母亲面前,小美总是扮演着乖乖女的角色,可实际上,小美和所有的同龄孩子一样,调皮、好动,并且开始对异性产生了兴趣。

在学校里,和小美玩的最好的是普利亚(麦特里伊·拉玛克里斯南 Maitreyi Ramakrishnan 配音)、米莉安姆(艾娃·摩士 Ava Morse 配音)和艾比(朴惠仁 配音)三个女孩,她们四人都是当红的偶像歌手团体4*Town的迷妹。一场意外中,小美在巨大的压力之下变身成为了一只小熊猫,就此揭开了隐藏在她家族里的秘密。

  1. ##### MediaInfo ######

  2. General

  3. Unique ID : 11540138232065456098674591552457011548 (0x8AE8CBE4622848F743A79429EF5F15C)

  4. Complete name : Turning.Red.2022.2160p.HDR.UHD.BluRay.TrueHD.7.1.Atmos.3Audio.x265-10bit-ENTHD.mkv

  5. Format : Matroska

  6. Format version : Version 4

  7. File size : 14.1 GiB

  8. Duration : 1 h 39 min

  9. Overall bit rate mode : Variable

  10. Overall bit rate : 20.2 Mb/s

  11. Movie name : Turning Red 2022 2160p HDR UHD BluRay TrueHD 7.1 Atmos 4Audio x265-10bit-HDS

  12. Encoded date : UTC 2022-05-03 15:42:54

  13. Writing application : mkvmerge v67.0.0 ('Under Stars') 64-bit

  14. Writing library : libebml v1.4.2 + libmatroska v1.6.4


  15. Video

  16. ID : 1

  17. Format : HEVC

  18. Format/Info : High Efficiency Video Coding

  19. Format profile : Main [email protected]@High

  20. HDR format : SMPTE ST 2086, HDR10 compatible

  21. Codec ID : V_MPEGH/ISO/HEVC

  22. Duration : 1 h 39 min

  23. Bit rate : 12.6 Mb/s

  24. Width : 3 840 pixels

  25. Height : 2 072 pixels

  26. Display aspect ratio : 1.85:1

  27. Frame rate mode : Constant

  28. Frame rate : 23.976 (24000/1001/53354) FPS

  29. Color space : YUV

  30. Chroma subsampling : 4:2:0

  31. Bit depth : 10 bits

  32. Bits/(Pixel*Frame) : 0.066

  33. Stream size : 8.76 GiB (62%)

  34. Title : @HDSky

  35. Writing library : x265 - H.265/HEVC codec

  36. Default : Yes

  37. Forced : No

  38. Color range : Limited

  39. Color primaries : BT.2020

  40. Transfer characteristics : PQ

  41. Matrix coefficients : BT.2020 non-constant

  42. Mastering display color primaries : BT.2020

  43. Mastering display luminance : min: 0.0050 cd/m2, max: 1000 cd/m2

  44. Maximum Content Light Level : 1439 cd/m2

  45. Maximum Frame-Average Light Level : 331 cd/m2


  46. Audio #1

  47. ID : 2

  48. Format : MLP FBA 16-ch

  49. Format/Info : Meridian Lossless Packing FBA with 16-channel presentation

  50. Commercial name : Dolby TrueHD with Dolby Atmos

  51. Codec ID : A_TRUEHD

  52. Duration : 1 h 39 min

  53. Bit rate mode : Variable

  54. Bit rate : 3 814 kb/s

  55. Maximum bit rate : 4 668 kb/s

  56. Channel(s) : 8 channels

  57. Channel layout : L R C LFE Ls Rs Lb Rb

  58. Sampling rate : 48.0 kHz

  59. Frame rate : 1 200.000 FPS (40 SPF)

  60. Compression mode : Lossless

  61. Stream size : 2.66 GiB (19%)

  62. Title : English

  63. Language : English

  64. Default : Yes

  65. Forced : No

  66. Number of dynamic objects : 13

  67. Bed channel count : 1 channel

  68. Bed channel configuration : LFE


  69. Audio #2

  70. ID : 3

  71. Format : AC-3

  72. Format/Info : Audio Coding 3

  73. Commercial name : Dolby Digital

  74. Codec ID : A_AC3

  75. Duration : 1 h 39 min

  76. Bit rate mode : Constant

  77. Bit rate : 640 kb/s

  78. Channel(s) : 6 channels

  79. Channel layout : L R C LFE Ls Rs

  80. Sampling rate : 48.0 kHz

  81. Frame rate : 31.250 FPS (1536 SPF)

  82. Compression mode : Lossy

  83. Stream size : 456 MiB (3%)

  84. Title : English

  85. Language : English

  86. Service kind : Complete Main

  87. Default : Yes

  88. Forced : No


  89. Audio #3

  90. ID : 4

  91. Format : DTS

  92. Format/Info : Digital Theater Systems

  93. Codec ID : A_DTS

  94. Duration : 1 h 39 min

  95. Bit rate mode : Constant

  96. Bit rate : 1 510 kb/s

  97. Channel(s) : 6 channels

  98. Channel layout : C L R Ls Rs LFE

  99. Sampling rate : 48.0 kHz

  100. Frame rate : 93.750 FPS (512 SPF)

  101. Bit depth : 24 bits

  102. Compression mode : Lossy

  103. Stream size : 1.05 GiB (7%)

  104. Title : Mandarin

  105. Language : Chinese

  106. Default : Yes

  107. Forced : No


  108. Audio #4

  109. ID : 5

  110. Format : DTS

  111. Format/Info : Digital Theater Systems

  112. Codec ID : A_DTS

  113. Duration : 1 h 39 min

  114. Bit rate mode : Constant

  115. Bit rate : 1 510 kb/s

  116. Channel(s) : 6 channels

  117. Channel layout : C L R Ls Rs LFE

  118. Sampling rate : 48.0 kHz

  119. Frame rate : 93.750 FPS (512 SPF)

  120. Bit depth : 24 bits

  121. Compression mode : Lossy

  122. Stream size : 1.05 GiB (7%)

  123. Title : Cantonese

  124. Language : Chinese

  125. Default : Yes

  126. Forced : No


  127. Text #1

  128. ID : 6

  129. Format : PGS

  130. Muxing mode : zlib

  131. Codec ID : S_HDMV/PGS

  132. Codec ID/Info : Picture based subtitle format used on BDs/HD-DVDs

  133. Duration : 1 h 38 min

  134. Bit rate : 61.3 kb/s

  135. Count of elements : 4278

  136. Stream size : 43.0 MiB (0%)

  137. Title : ENG

  138. Language : English

  139. Default : Yes

  140. Forced : No


  141. Text #2

  142. ID : 7

  143. Format : PGS

  144. Muxing mode : zlib

  145. Codec ID : S_HDMV/PGS

  146. Codec ID/Info : Picture based subtitle format used on BDs/HD-DVDs

  147. Duration : 1 h 39 min

  148. Bit rate : 39.6 kb/s

  149. Count of elements : 2733

  150. Stream size : 28.2 MiB (0%)

  151. Title : CHS

  152. Language : Chinese

  153. Default : Yes

  154. Forced : No


  155. Text #3

  156. ID : 8

  157. Format : PGS

  158. Muxing mode : zlib

  159. Codec ID : S_HDMV/PGS

  160. Codec ID/Info : Picture based subtitle format used on BDs/HD-DVDs

  161. Duration : 1 h 39 min

  162. Bit rate : 34.2 kb/s

  163. Count of elements : 2763

  164. Stream size : 24.4 MiB (0%)

  165. Title : CHT

  166. Language : Chinese

  167. Default : Yes

  168. Forced : No


  169. Text #4

  170. ID : 9

  171. Format : PGS

  172. Muxing mode : zlib

  173. Codec ID : S_HDMV/PGS

  174. Codec ID/Info : Picture based subtitle format used on BDs/HD-DVDs

  175. Duration : 1 h 39 min

  176. Bit rate : 33.4 kb/s

  177. Count of elements : 2705

  178. Stream size : 23.8 MiB (0%)

  179. Title : CHT

  180. Language : Chinese

  181. Default : Yes

  182. Forced : No


  183. Text #5

  184. ID : 10

  185. Format : PGS

  186. Muxing mode : zlib

  187. Codec ID : S_HDMV/PGS

  188. Codec ID/Info : Picture based subtitle format used on BDs/HD-DVDs

  189. Duration : 1 h 39 min

  190. Bit rate : 43.1 kb/s

  191. Count of elements : 3108

  192. Stream size : 30.7 MiB (0%)

  193. Title : CHS&ENG

  194. Language : Chinese

  195. Default : Yes

  196. Forced : No


  197. Menu

  198. 00:00:00.000 : en:第 01 章

  199. 00:03:18.323 : en:第 02 章

  200. 00:06:09.494 : en:第 03 章

  201. 00:09:26.816 : en:第 04 章

  202. 00:10:48.481 : en:第 05 章

  203. 00:15:19.210 : en:第 06 章

  204. 00:16:06.549 : en:第 07 章

  205. 00:19:56.111 : en:第 08 章

  206. 00:23:50.721 : en:第 09 章

  207. 00:26:51.902 : en:第 10 章

  208. 00:31:08.783 : en:第 11 章

  209. 00:36:04.704 : en:第 12 章

  210. 00:37:58.401 : en:第 13 章

  211. 00:39:56.018 : en:第 14 章

  212. 00:42:44.812 : en:第 15 章

  213. 00:45:28.434 : en:第 16 章

  214. 00:48:08.427 : en:第 17 章

  215. 00:50:08.130 : en:第 18 章

  216. 00:52:51.877 : en:第 19 章

  217. 00:55:07.887 : en:第 20 章

  218. 00:56:27.592 : en:第 21 章

  219. 00:59:53.506 : en:第 22 章

  220. 01:01:54.001 : en:第 23 章

  221. 01:03:31.432 : en:第 24 章

  222. 01:05:53.240 : en:第 25 章

  223. 01:11:10.224 : en:第 26 章

  224. 01:14:42.144 : en:第 27 章

  225. 01:18:46.179 : en:第 28 章

  226. 01:21:37.350 : en:第 29 章

  227. 01:26:53.791 : en:第 30 章

  228. 01:28:56.956 : en:第 31 章

  229. 01:38:38.328 : en:第 32 章




复制代码



文件下载


除非特别注明,本文『青春变形记[国粤英多音轨/简繁英字幕].Turning.Red.2022.2160p.HDR.UHD.BluRay.TrueHD.7.1.Atmos.3Audio.x265-10bit-ENTHD 1』来源于互联网机器人自动抓取,非本站原创。 浮游电影网不对本文拥有版权,如有侵犯,请联系邮箱:fuyouu#yandex.com[#换成@]投诉。我们会在15个工作日内删除。 但烦请转载时请标明出处:“本文转载于『浮游电影网』,原文地址:https://www.fuyouu.com/21888.html

评论吧骚年!

发表你的见解   

昵称*

E-mail*(建议输入,以便收到博主回复的提示邮件)

验证码*

您可以使用eMule或eMule Mod(Windows)、aMule(Win、Linux、Mac)等软件下载eD2k链接。。
eMule收藏集(.emulecollection)文件是您选中的所有链接的列表文件。eMule可以直接下载它们。
按住SHIFT键选择可以选中多个选择框。
可用文件名和大小选择器来选择文件。
文件名选择器帮您根据文件名称或后缀来选择文件。不分大小写。
符号使用:
和:空格( )、+
不包含:-
或:|
转义:一对英文引号("");
匹配开头:^
匹配结尾:$
例如:
选中所有名称中包含有“eMule”或“0.49c”字眼,但不包含有“exe”字眼的:emule|0.49c -exe
选中所有名称的开头是“eMule”,结尾是“0.49c”的:^emule 0.49c$
选中所有名称中带有“eMule 0.49c”的(必须是“eMule 0.49c”,中间没有别的字符,不能是“eMule fake 0.49c”),需要转义:"emule 0.49c"
大小选择器帮您根据文件大小选择文件。