当前位置: 首页 >> 国产电影 >> 太平轮[共2部合集][国语音轨/繁英字幕].The.Crossing.1-2.2014-2015.BluRay.1080p.DTS-HD.MA.7.1.x265.10bit-ALT 28.30GB >> 正文

太平轮[共2部合集][国语音轨/繁英字幕].The.Crossing.1-2.2014-2015.BluRay.1080p.DTS-HD.MA.7.1.x265.10bit-ALT 28.30GB

2022年05月05日 10:28:04     电影发布:来源于网络     电影分类:国产电影     评论(0)    

◎译 名 太平轮(下)·彼岸 / 太平轮(下):彼岸 / 太平轮II:惊涛挚爱(台) / 生死恋 / 1949 / The Crossing : Part 2 / 太平轮·彼岸

◎年 代 2015

◎产 地 中国大陆 / 中国香港

◎类 别 剧情 / 爱情 / 灾难

◎语 言 汉语普通话 / 日语 / 闽南语 / 上海话

◎上映日期 2015-07-30(中国大陆)

◎IMDb链接 https://www.imdb.com/title/tt4027270/

◎豆瓣评分 6.6/10 (63338人评价)

◎豆瓣链接 https://movie.douban.com/subject/25956520/

◎片 长 131分钟

◎导 演 吴宇森 John Woo (id:1027853)

◎编 剧 王蕙玲 Hui-Ling Wang (id:1300390)

苏照彬 Chao-Bin Su (id:1274731)

陈静慧 Jinghui Chen (id:1324546)

吴宇森 John Woo (id:1027853)

◎演 员 章子怡 Ziyi Zhang (id:1041014)

金城武 Takeshi Kaneshiro (id:1027883)

宋慧乔 Hye-kyo Song (id:1197534)

黄晓明 Xiaoming Huang (id:1041404)

佟大为 Dawei Tong (id:1009179)

长泽雅美 Masami Nagasawa (id:1018667)

秦海璐 Hailu Qin (id:1274437)

俞飞鸿 Faye Yu (id:1014618)

杨祐宁 Yo Yang (id:1051157)

杨贵媚 Kuei-Mei Yang (id:1165442)

丛珊 Shan Cong (id:1047358)

吴飞霞 Angeles Woo (id:1322423)

王千源 Qianyuan Wang (id:1314827)

林保怡 Bowie Lam (id:1274606)

林美秀 Mei-hsiu Lin (id:1316086)

高捷 Jack Kao (id:1276076)

黄柏钧 Denny Huang (id:1321304)

寇家瑞 Chia-Jui Kou (id:1336612)

许还幻 Huanhuan Xu (id:1315233)

尤勇智 Yongzhi You (id:1301518)

刘仪伟 Yiwei Liu (id:1315726)

黑木瞳 Hitomi Kuroki (id:1028490)

寇世勋 Johnny Kou Hsi-Shun (id:1275614)

王雅琴 Yaqin Wang (id:1415562)

崔陆萌 Lumeng Cui (id:1349292)

罗大佑 Tayu Lo (id:1011384)

岩代太郎 Tar? Iwashiro (id:1287445)

赵非 Fei Zhao (id:1283522)

杨振宇 Zhenyu Yang (id:1424278)

缪健辉 Tony Miu (id:1378532)

李天雷 Tianlei Li (id:1449034)

杨红雨 Hongyu Yang (id:1301417)

马光荣 Horace Ma (id:1330613)

鲁伟 Wei Lu (id:1382067)

周惠坤 Thomas Chow (id:1330717)

桑林 Sang Lin (id:1378391)

姚信子 Xinzi Yao (id:1421729)

杜笃之 Du-Che Tu (id:1275159)

罗礼贤 Bruce Law (id:1289542)

罗义民 Norman Law (id:1316462)

孙秋霞 Qiuxia Sun (id:1311580)

◎简 介

20世纪40年代,内战快结束之际,台湾医生严泽坤(金城武 饰)频繁往返于台湾通往大陆的邮轮“太平轮”上,以便购买药品。为了维持家庭生计,表面上他风平浪静,内心却一直没有停止思念因战争被迫分离的恋人雅子(长泽雅美 饰),而他的弟弟严泽明(杨佑宁 饰)则一心想去大陆搞革命,苦难家庭风雨飘摇。严泽坤偶遇有过一面之缘的将军雷义方(黄晓明 饰)夫人(宋慧乔 饰),雷将军的通信兵佟大庆(佟大为 饰)念念不忘底层女性于真(章子怡 饰),还有士官(王千源 饰)、夫人(俞飞鸿 饰),众人相逢在最后一班去台湾的“太平轮”上,书写了战乱年代的悲欢离合,命运的齿轮开启,大时代下的小人物该何去何从?

◎获奖情况 (共5项)

第35届香港电影金像奖 (2016)

最佳美术指导(提名)

最佳服装造型设计(提名)

最佳原创电影音乐(提名)

最佳原创电影歌曲(提名)

第16届中国电影华表奖 (2016)

优秀摄影

└──赵非 (id:1283522)

  1. 合集文件列表:

  2. 1.The.Crossing.2.2015.BluRay.1080p.DTS-HD.MA.7.1.x265.10bit-ALT.mkv 12.61GB

  3. 2.The.Crossing.2014.BluRay.1080p.DTS-HD.MA.7.1.x265.10bit-ALT.mkv 15.68GB


复制代码

  1. ##### MediaInfo ######

  2. General

  3. Unique ID : 206526978033823184679138018663434452027 (0x9B5FA62D82578D95887122163A9E7C3B)

  4. Complete name : The.Crossing.2.2015.BluRay.1080p.DTS-HD.MA.7.1.x265.10bit-ALT.mkv

  5. Format : Matroska

  6. Format version : Version 4

  7. File size : 12.6 GiB

  8. Duration : 2 h 5 min

  9. Overall bit rate mode : Variable

  10. Overall bit rate : 14.4 Mb/s

  11. Encoded date : UTC 2020-05-08 01:40:40

  12. Writing application : mkvmerge v46.0.0 ('No Deeper Escape') 64-bit

  13. Writing library : libebml v1.3.10 + libmatroska v1.5.2


  14. Video

  15. ID : 1

  16. Format : HEVC

  17. Format/Info : High Efficiency Video Coding

  18. Format profile : Main [email protected]@High

  19. Codec ID : V_MPEGH/ISO/HEVC

  20. Duration : 2 h 5 min

  21. Bit rate : 11.5 Mb/s

  22. Width : 1 920 pixels

  23. Height : 802 pixels

  24. Display aspect ratio : 2.40:1

  25. Frame rate mode : Constant

  26. Frame rate : 24.000 FPS

  27. Color space : YUV

  28. Chroma subsampling : 4:2:0

  29. Bit depth : 10 bits

  30. Bits/(Pixel*Frame) : 0.311

  31. Stream size : 10.1 GiB (80%)

  32. Title : HEVC, [email protected]@High, 24 fps @ 11493 kbps

  33. Writing library : x265 3.3+1-g396395b2b:[Windows][GCC 9.2.0][64 bit] 10bit

  34. Encoding settings : cpuid=533541111039 / frame-threads=5 / numa-pools=44,44 / wpp / pmode / pme / no-psnr / no-ssim / log-level=2 / input-csp=1 / input-res=1920x802 / interlace=0 / total-frames=181150 / level-idc=51 / high-tier=1 / uhd-bd=0 / ref=5 / no-allow-non-conformance / no-repeat-headers / annexb / no-aud / no-hrd / info / hash=0 / no-temporal-layers / open-gop / min-keyint=24 / keyint=240 / gop-lookahead=0 / bframes=6 / b-adapt=2 / b-pyramid / bframe-bias=0 / rc-lookahead=40 / lookahead-slices=0 / NTMzNTQ=uuDQuD2mJt9fsCf / scenecut=40 / hist-scenecut=0 / radl=0 / no-splice / no-intra-refresh / ctu=32 / min-cu-size=8 / no-rect / no-amp / max-tu-size=32 / tu-inter-depth=3 / tu-intra-depth=3 / limit-tu=4 / rdoq-level=2 / dynamic-rd=0.00 / no-ssim-rd / signhide / no-tskip / nr-intra=0 / nr-inter=0 / no-constrained-intra / no-strong-intra-smoothing / max-merge=4 / limit-refs=1 / limit-modes / me=3 / subme=4 / merange=25 / temporal-mvp / no-frame-dup / no-hme / weightp / weightb / no-analyze-src-pics / deblock=-3:-3 / no-sao / no-sao-non-deblock / rd=6 / selective-sao=0 / no-early-skip / rskip / no-fast-intra / no-tskip-fast / no-cu-lossless / b-intra / no-splitrd-skip / rdpenalty=0 / psy-rd=2.00 / psy-rdoq=1.00 / no-rd-refine / no-lossless / cbqpoffs=0 / crqpoffs=0 / rc=crf / crf=17.0 / qcomp=0.65 / qpstep=4 / stats-write=0 / stats-read=0 / vbv-maxrate=80000 / vbv-bufsize=80000 / vbv-init=0.9 / crf-max=0.0 / crf-min=0.0 / ipratio=1.40 / pbratio=1.30 / aq-mode=2 / aq-strength=0.85 / cutree / zone-count=0 / no-strict-cbr / qg-size=32 / no-rc-grain / qpmax=69 / qpmin=0 / no-const-vbv / sar=1 / overscan=0 / videoformat=5 / range=0 / colorprim=1 / transfer=1 / colormatrix=1 / chromaloc=0 / display-window=0 / cll=0,0 / min-luma=0 / max-luma=1023 / log2-max-poc-lsb=8 / vui-timing-info / vui-hrd-info / slices=1 / no-opt-qp-pps / no-opt-ref-list-length-pps / no-multi-pass-opt-rps / scenecut-bias=0.05 / hist-threshold=0.01 / no-opt-cu-delta-qp / no-aq-motion / no-hdr10 / no-hdr10-opt / no-dhdr10-opt / no-idr-recovery-sei / analysis-reuse-level=0 / analysis-save-reuse-level=0 / analysis-load-reuse-level=0 / scale-factor=0 / refine-intra=0 / refine-inter=0 / refine-mv=1 / refine-ctu-distortion=0 / no-limit-sao / ctu-info=0 / no-lowpass-dct / refine-analysis-type=0 / copy-pic=1 / max-ausize-factor=1.0 / no-dynamic-refine / no-single-sei / no-hevc-aq / no-svt / no-field / qp-adaptation-range=1.00 / no-scenecut-aware-qpconformance-window-offsets / right=0 / bottom=0 / NTMzNTQ=

  35. Language : English

  36. Default : Yes

  37. Forced : No

  38. Color range : Limited

  39. Color primaries : BT.709

  40. Transfer characteristics : BT.709

  41. Matrix coefficients : BT.709


  42. Audio

  43. ID : 2

  44. Format : DTS XLL

  45. Format/Info : Digital Theater Systems

  46. Commercial name : DTS-HD Master Audio

  47. Codec ID : A_DTS

  48. Duration : 2 h 5 min

  49. Bit rate mode : Variable

  50. Bit rate : 2 814 kb/s

  51. Channel(s) : 8 channels

  52. Channel layout : C L R LFE Lb Rb Lss Rss

  53. Sampling rate : 48.0 kHz

  54. Frame rate : 93.750 FPS (512 SPF)

  55. Bit depth : 16 bits

  56. Compression mode : Lossless

  57. Stream size : 2.47 GiB (20%)

  58. Title : Mandarin DTS-HD Master Audio 7.1 @ 2814 kbps

  59. Language : Chinese

  60. Default : Yes

  61. Forced : No


  62. Text #1

  63. ID : 3

  64. Format : PGS

  65. Codec ID : S_HDMV/PGS

  66. Codec ID/Info : Picture based subtitle format used on BDs/HD-DVDs

  67. Duration : 2 h 2 min

  68. Bit rate : 22.0 kb/s

  69. Count of elements : 2844

  70. Stream size : 19.2 MiB (0%)

  71. Title : Cht/SUP 繁体

  72. Language : Chinese

  73. Default : Yes

  74. Forced : No


  75. Text #2

  76. ID : 4

  77. Format : PGS

  78. Codec ID : S_HDMV/PGS

  79. Codec ID/Info : Picture based subtitle format used on BDs/HD-DVDs

  80. Duration : 1 h 57 min

  81. Bit rate : 24.2 kb/s

  82. Count of elements : 2752

  83. Stream size : 20.4 MiB (0%)

  84. Title : Eng/SUP

  85. Language : English

  86. Default : No

  87. Forced : No


  88. Menu

  89. 00:00:00.000 : en:第 01 章

  90. 00:07:06.165 : en:第 02 章

  91. 00:14:15.207 : en:第 03 章

  92. 00:21:40.458 : en:第 04 章

  93. 00:28:22.250 : en:第 05 章

  94. 00:35:00.166 : en:第 06 章

  95. 00:41:01.375 : en:第 07 章

  96. 00:45:47.750 : en:第 08 章

  97. 00:50:47.333 : en:第 09 章

  98. 00:58:15.125 : en:第 10 章

  99. 01:09:50.582 : en:第 11 章

  100. 01:17:36.332 : en:第 12 章

  101. 01:26:31.666 : en:第 13 章

  102. 01:36:14.707 : en:第 14 章

  103. 01:52:28.957 : en:第 15 章




复制代码




文件下载


除非特别注明,本文『太平轮[共2部合集][国语音轨/繁英字幕].The.Crossing.1-2.2014-2015.BluRay.1080p.DTS-HD.MA.7.1.x265.10bit-ALT 28.30GB』来源于互联网机器人自动抓取,非本站原创。 浮游电影网不对本文拥有版权,如有侵犯,请联系邮箱:fuyouu#yandex.com[#换成@]投诉。我们会在15个工作日内删除。 但烦请转载时请标明出处:“本文转载于『浮游电影网』,原文地址:https://www.fuyouu.com/21886.html

评论吧骚年!

发表你的见解   

昵称*

E-mail*(建议输入,以便收到博主回复的提示邮件)

验证码*

您可以使用eMule或eMule Mod(Windows)、aMule(Win、Linux、Mac)等软件下载eD2k链接。。
eMule收藏集(.emulecollection)文件是您选中的所有链接的列表文件。eMule可以直接下载它们。
按住SHIFT键选择可以选中多个选择框。
可用文件名和大小选择器来选择文件。
文件名选择器帮您根据文件名称或后缀来选择文件。不分大小写。
符号使用:
和:空格( )、+
不包含:-
或:|
转义:一对英文引号("");
匹配开头:^
匹配结尾:$
例如:
选中所有名称中包含有“eMule”或“0.49c”字眼,但不包含有“exe”字眼的:emule|0.49c -exe
选中所有名称的开头是“eMule”,结尾是“0.49c”的:^emule 0.49c$
选中所有名称中带有“eMule 0.49c”的(必须是“eMule 0.49c”,中间没有别的字符,不能是“eMule fake 0.49c”),需要转义:"emule 0.49c"
大小选择器帮您根据文件大小选择文件。