当前位置: 首页 >> 港台电影 >> 最佳损友[共2部合集][国粤英多音轨/简繁英字幕].The.Crazy.Companies.1-2.1988.BluRay.1080p.2Audio.DTS-HD.MA.2.0.x265.10bit- >> 正文

最佳损友[共2部合集][国粤英多音轨/简繁英字幕].The.Crazy.Companies.1-2.1988.BluRay.1080p.2Audio.DTS-HD.MA.2.0.x265.10bit-

2022年05月05日 10:26:53     电影发布:来源于网络     电影分类:港台电影     评论(0)    

◎译 名 最佳损友 / The Crazy Companies

◎年 代 1988

◎产 地 中国香港

◎类 别 喜剧

◎语 言 粤语

◎上映日期 1988-03-27(中国香港)

◎IMDb链接 https://www.imdb.com/title/tt0096512/

◎豆瓣评分 6.8/10 (12071人评价)

◎豆瓣链接 https://movie.douban.com/subject/1304382/

◎片 长 99分钟

◎导 演 王晶 Jing Wong (id:1274331)

◎编 剧 王晶 Jing Wong (id:1274331)

◎演 员 刘德华 Andy Lau (id:1054424)

陈百祥 Pak-cheung Chan (id:1070608)

冯淬帆 Stanley Fung (id:1274503)

邱淑贞 Chingmy Yau (id:1048296)

陈玉莲 Idy Chan (id:1000955)

唐丽球 Joan Tong Lai-Kau (id:1275206)

谭镇渡 Tony Tam Chun-To (id:1417488)

伍国健 Kwok-kin Ng (id:1418713)

王晶 Jing Wong (id:1274331)

杜少明 Siu-Ming To (id:1360414)

日本仔 Boon Chai Yat (id:1423732)

冼灏英 Thomas Sin Ho-Ying (id:1347644)

黄霑 James Wong (id:1008091)

吴君如 Sandra Ng (id:1127819)

翁世杰 Sai-Kit Yung (id:1319534)

曹查理 Charlie Cho (id:1275320)

成奎安 Fui-On Shing (id:1141665)

王晶 Jing Wong (id:1274331)

周锦祥 Gam Cheung Chow (id:1315803)

陈俊杰 Henry Chan (id:1280422)

邱复生 Fu-Sheng Chiu (id:1280685)

◎简 介

徐家父亲逝世了,身在美国的徐定贵(刘德华 饰)应叔父的邀请回到了香港承继遗产。徐定贵有个同父异母的哥哥徐定富,定富对于这个前来分家产的弟弟十分不满,刚好叔父要求定贵在公司工作,并要求他表现良好才能顺利领得遗产。

为了能独吞财富,假仁假义的定富故意招来了三位出名的损友,跟定贵成为朋友后把他教坏。意想不到的是这三位损友不但没有把定贵教坏,四人还成为了好友。当他们知道了定富的阴谋之后,决定联手对付卑鄙的定富。

  1. 合集文件列表:

  2. 1.The.Crazy.Companies.1.1988.BluRay.1080p.2Audio.DTS-HD.MA.2.0.x265.10bit-ALT.mkv 10.15GB

  3. 2.The.Crazy.Companies.2.1988.BluRay.1080p.2Audio.DTS-HD.MA.2.0.x265.10bit-ALT.mkv 10.06GB


复制代码

  1. ##### MediaInfo ######

  2. General

  3. Unique ID : 99794405016429734957452236815891948726 (0x4B13B40AD60749368B1697BA8A2BE4B6)

  4. Complete name : The.Crazy.Companies.1.1988.BluRay.1080p.2Audio.DTS-HD.MA.2.0.x265.10bit-ALT.mkv

  5. Format : Matroska

  6. Format version : Version 4

  7. File size : 10.2 GiB

  8. Duration : 1 h 39 min

  9. Overall bit rate mode : Variable

  10. Overall bit rate : 14.7 Mb/s

  11. Encoded date : UTC 2021-02-13 01:48:19

  12. Writing application : mkvmerge v49.0.0 ('Sick Of Losing Soulmates') 64-bit

  13. Writing library : libebml v1.4.0 + libmatroska v1.6.1


  14. Video

  15. ID : 1

  16. Format : HEVC

  17. Format/Info : High Efficiency Video Coding

  18. Format profile : Main [email protected]@High

  19. Codec ID : V_MPEGH/ISO/HEVC

  20. Duration : 1 h 39 min

  21. Bit rate : 12.9 Mb/s

  22. Width : 1 920 pixels

  23. Height : 1 080 pixels

  24. Display aspect ratio : 16:9

  25. Frame rate mode : Constant

  26. Frame rate : 24.000 FPS

  27. Color space : YUV

  28. Chroma subsampling : 4:2:0

  29. Bit depth : 10 bits

  30. Bits/(Pixel*Frame) : 0.260

  31. Stream size : 8.96 GiB (88%)

  32. Title : HEVC, [email protected]@High, 24 fps @ 12949 kbps

  33. Writing library : x265 3.4+14-gd419c7152:[Windows][GCC 10.2.0][64 bit] 10bit

  34. Encoding settings : cpuid=533541111039 / frame-threads=5 / numa-pools=44,44 / wpp / pmode / pme / no-psnr / no-ssim / log-level=2 / input-csp=1 / input-res=1920x1080 / interlace=0 / total-frames=142705 / level-idc=51 / high-tier=1 / uhd-bd=0 / ref=5 / no-allow-non-conformance / no-repeat-headers / annexb / no-aud / no-hrd / info / hash=0 / no-temporal-layers / open-gop / min-keyint=24 / keyint=240 / gop-lookahead=0 / bframes=6 / b-adapt=2 / b-pyramid / bframe-bias=0 / rc-lookahead=40 / lookahead-slices=0 / NTMzNTQ=uuDQuD2mJt9fsCf / scenecut=40 / hist-scenecut=0 / radl=0 / no-splice / no-intra-refresh / ctu=32 / min-cu-size=8 / no-rect / no-amp / max-tu-size=32 / tu-inter-depth=3 / tu-intra-depth=3 / limit-tu=4 / rdoq-level=2 / dynamic-rd=0.00 / no-ssim-rd / signhide / no-tskip / nr-intra=0 / nr-inter=0 / no-constrained-intra / no-strong-intra-smoothing / max-merge=4 / limit-refs=1 / limit-modes / me=3 / subme=4 / merange=25 / temporal-mvp / no-frame-dup / no-hme / weightp / weightb / no-analyze-src-pics / deblock=-3:-3 / no-sao / no-sao-non-deblock / rd=6 / selective-sao=0 / no-early-skip / rskip / no-fast-intra / no-tskip-fast / no-cu-lossless / b-intra / no-splitrd-skip / rdpenalty=0 / psy-rd=2.00 / psy-rdoq=1.00 / no-rd-refine / no-lossless / cbqpoffs=0 / crqpoffs=0 / rc=crf / crf=19.5 / qcomp=0.65 / qpstep=4 / stats-write=0 / stats-read=0 / vbv-maxrate=80000 / vbv-bufsize=80000 / vbv-init=0.9 / crf-max=0.0 / crf-min=0.0 / ipratio=1.40 / pbratio=1.30 / aq-mode=2 / aq-strength=0.85 / cutree / zone-count=0 / no-strict-cbr / qg-size=32 / no-rc-grain / qpmax=69 / qpmin=0 / no-const-vbv / sar=1 / overscan=0 / videoformat=5 / range=0 / colorprim=1 / transfer=1 / colormatrix=1 / chromaloc=0 / display-window=0 / cll=0,0 / min-luma=0 / max-luma=1023 / log2-max-poc-lsb=8 / vui-timing-info / vui-hrd-info / slices=1 / no-opt-qp-pps / no-opt-ref-list-length-pps / no-multi-pass-opt-rps / scenecut-bias=0.05 / hist-threshold=0.03 / no-opt-cu-delta-qp / no-aq-motion / no-hdr10 / no-hdr10-opt / no-dhdr10-opt / no-idr-recovery-sei / analysis-reuse-level=0 / analysis-save-reuse-level=0 / analysis-load-reuse-level=0 / scale-factor=0 / refine-intra=0 / refine-inter=0 / refine-mv=1 / refine-ctu-distortion=0 / no-limit-sao / ctu-info=0 / no-lowpass-dct / refine-analysis-type=0 / copy-pic=1 / max-ausize-factor=1.0 / no-dynamic-refine / no-single-sei / no-hevc-aq / no-svt / no-field / qp-adaptation-range=1.00 / no-scenecut-aware-qpconformance-window-offsets / right=0 / bottom=0 / NTMzNTQ= / decoder-max-rate=0

  35. Language : English

  36. Default : Yes

  37. Forced : No

  38. Color range : Limited

  39. Color primaries : BT.709

  40. Transfer characteristics : BT.709

  41. Matrix coefficients : BT.709


  42. Audio #1

  43. ID : 2

  44. Format : DTS XLL

  45. Format/Info : Digital Theater Systems

  46. Commercial name : DTS-HD Master Audio

  47. Codec ID : A_DTS

  48. Duration : 1 h 39 min

  49. Bit rate mode : Variable

  50. Bit rate : 776 kb/s

  51. Channel(s) : 2 channels

  52. Channel layout : L R

  53. Sampling rate : 48.0 kHz

  54. Frame rate : 93.750 FPS (512 SPF)

  55. Bit depth : 16 bits

  56. Compression mode : Lossless

  57. Stream size : 550 MiB (5%)

  58. Title : Cantonese DTS-HD Master Audio 2.0 @ 777 kbps

  59. Language : Chinese

  60. Default : Yes

  61. Forced : No


  62. Audio #2

  63. ID : 3

  64. Format : DTS XLL

  65. Format/Info : Digital Theater Systems

  66. Commercial name : DTS-HD Master Audio

  67. Codec ID : A_DTS

  68. Duration : 1 h 39 min

  69. Bit rate mode : Variable

  70. Bit rate : 789 kb/s

  71. Channel(s) : 2 channels

  72. Channel layout : L R

  73. Sampling rate : 48.0 kHz

  74. Frame rate : 93.750 FPS (512 SPF)

  75. Bit depth : 16 bits

  76. Compression mode : Lossless

  77. Stream size : 560 MiB (5%)

  78. Title : Mandarin DTS-HD Master Audio 2.0 @ 790 kbps

  79. Language : Chinese

  80. Default : No

  81. Forced : No


  82. Text #1

  83. ID : 4

  84. Format : PGS

  85. Codec ID : S_HDMV/PGS

  86. Codec ID/Info : Picture based subtitle format used on BDs/HD-DVDs

  87. Duration : 1 h 37 min

  88. Bit rate : 52.7 kb/s

  89. Count of elements : 2552

  90. Stream size : 36.7 MiB (0%)

  91. Title : Cht/SUP 原盘繁体

  92. Language : Chinese

  93. Default : No

  94. Forced : No


  95. Text #2

  96. ID : 5

  97. Format : PGS

  98. Codec ID : S_HDMV/PGS

  99. Codec ID/Info : Picture based subtitle format used on BDs/HD-DVDs

  100. Duration : 1 h 37 min

  101. Bit rate : 51.7 kb/s

  102. Count of elements : 2570

  103. Stream size : 36.1 MiB (0%)

  104. Title : Chs/SUP 原盘简体

  105. Language : Chinese

  106. Default : Yes

  107. Forced : No


  108. Text #3

  109. ID : 6

  110. Format : PGS

  111. Codec ID : S_HDMV/PGS

  112. Codec ID/Info : Picture based subtitle format used on BDs/HD-DVDs

  113. Duration : 1 h 37 min

  114. Bit rate : 43.9 kb/s

  115. Count of elements : 2567

  116. Stream size : 30.7 MiB (0%)

  117. Title : Eng/SUP

  118. Language : English

  119. Default : No

  120. Forced : No


  121. Menu

  122. 00:00:00.000 : :第 01 章

  123. 00:09:43.415 : :第 02 章

  124. 00:18:23.583 : :第 03 章

  125. 00:26:54.040 : :第 04 章

  126. 00:30:40.958 : :第 05 章

  127. 00:42:38.958 : :第 06 章

  128. 00:49:59.875 : :第 07 章

  129. 00:57:32.000 : :第 08 章

  130. 01:08:15.833 : :第 09 章

  131. 01:18:22.666 : :第 10 章

  132. 01:25:43.582 : :第 11 章

  133. 01:31:32.832 : :第 12 章




复制代码



文件下载


除非特别注明,本文『最佳损友[共2部合集][国粤英多音轨/简繁英字幕].The.Crazy.Companies.1-2.1988.BluRay.1080p.2Audio.DTS-HD.MA.2.0.x265.10bit-』来源于互联网机器人自动抓取,非本站原创。 浮游电影网不对本文拥有版权,如有侵犯,请联系邮箱:fuyouu#yandex.com[#换成@]投诉。我们会在15个工作日内删除。 但烦请转载时请标明出处:“本文转载于『浮游电影网』,原文地址:https://www.fuyouu.com/21885.html

评论吧骚年!

发表你的见解   

昵称*

E-mail*(建议输入,以便收到博主回复的提示邮件)

验证码*

您可以使用eMule或eMule Mod(Windows)、aMule(Win、Linux、Mac)等软件下载eD2k链接。。
eMule收藏集(.emulecollection)文件是您选中的所有链接的列表文件。eMule可以直接下载它们。
按住SHIFT键选择可以选中多个选择框。
可用文件名和大小选择器来选择文件。
文件名选择器帮您根据文件名称或后缀来选择文件。不分大小写。
符号使用:
和:空格( )、+
不包含:-
或:|
转义:一对英文引号("");
匹配开头:^
匹配结尾:$
例如:
选中所有名称中包含有“eMule”或“0.49c”字眼,但不包含有“exe”字眼的:emule|0.49c -exe
选中所有名称的开头是“eMule”,结尾是“0.49c”的:^emule 0.49c$
选中所有名称中带有“eMule 0.49c”的(必须是“eMule 0.49c”,中间没有别的字符,不能是“eMule fake 0.49c”),需要转义:"emule 0.49c"
大小选择器帮您根据文件大小选择文件。