当前位置: 首页 >> 欧美电影 >> 纳尼亚传奇[共3部合集][国英多音轨/简英字幕].The.Chronicles.of.Narnia.2005-2010.BluRay.1080p.2Audio.DTS-HD.MA5.1.x265.10 >> 正文

纳尼亚传奇[共3部合集][国英多音轨/简英字幕].The.Chronicles.of.Narnia.2005-2010.BluRay.1080p.2Audio.DTS-HD.MA5.1.x265.10

2022年05月05日 10:25:57     电影发布:来源于网络     电影分类:欧美电影     评论(0)    

◎译 名 纳尼亚传奇1:狮子、女巫和魔衣橱 / 魔幻王国:狮子·女巫·魔衣橱(港) / 纳尼亚传奇:狮子、女巫、魔衣橱(台) / 神奇的纳尼亚:狮子、女巫和衣橱 / 纳尼亚魔法王国 / 纳尼亚王国 / The Chronicles of Narnia 1

◎片 名 The Chronicles of Narnia: The Lion, the Witch and the Wardrobe

◎年 代 2005

◎产 地 英国 / 美国

◎类 别 剧情 / 奇幻 / 冒险

◎语 言 英语 / 德语

◎上映日期 2005-12-09(美国)

◎IMDb链接 https://www.imdb.com/title/tt0363771/

◎豆瓣评分 7.5/10 (171762人评价)

◎豆瓣链接 https://movie.douban.com/subject/1309052/

◎片 长 143分钟

◎导 演 安德鲁·亚当森 Andrew Adamson (id:1036635)

◎编 剧 安·皮科克 Ann Peacock (id:1294153)

安德鲁·亚当森 Andrew Adamson (id:1036635)

克里斯托弗·马库斯 Christopher Markus (id:1276125)

斯蒂芬·麦克菲利 Stephen McFeely (id:1276126)

C·S·刘易斯 C.S. Lewis (id:1036961)

◎演 员 乔芝·韩莉 Georgie Henley (id:1010580)

斯堪德·凯恩斯 Skandar Keynes (id:1047957)

威廉·莫斯里 William Moseley (id:1044875)

安娜·帕波维尔 Anna Popplewell (id:1036355)

蒂尔达·斯文顿 Tilda Swinton (id:1025152)

詹姆斯·麦卡沃伊 James McAvoy (id:1006958)

吉姆·布劳德本特 Jim Broadbent (id:1019049)

连姆·尼森 Liam Neeson (id:1031220)

雷·温斯顿 Ray Winstone (id:1006977)

伊丽莎白·霍桑 Elizabeth Hawthorne (id:1286259)

马克·韦尔斯 Mark Wells (id:1050580)

詹姆斯·科兹莫 James Cosmo (id:1019110)

马克·约翰逊 Mark Johnson (id:1276128)

安德鲁·亚当森 Andrew Adamson (id:1036635)

哈里·格雷格森-威廉姆斯 Harry Gregson-Williams (id:1056131)

凯伦·墨菲 Karen Murphy (id:1292754)

艾伦·李 Alan Lee (id:1109822)

伊西斯·马森登 Isis Mussenden (id:1019610)

帕特里克·奥斯本 Patrick Osborne (id:1351406)

龙子乔 Joe Ksander (id:1308172)

大卫·特拉蒙特 David Tremont (id:1299497)

◎简 介

二战期间,四个小孩子随着父母来到乡下避战。这些乡村住宅古色古香,其中有一个房间里摆着一个大衣柜。一天,几个小孩子玩捉迷藏,露西(乔基·亨莉 Georgie Henley 饰)躲进了衣柜里,眼前却意外出现了一个神奇的世界——那里白雪皑皑,荒无人烟。她在雪地上走着走着,遇上了 人羊怪物。

其他孩子也一一进入这个魔法衣橱。他们得知里面的王国叫纳尼亚,正在被一个邪恶的女巫所统治。女巫想把这几个外来者一网打尽,同时这些孩子得知纳尼亚正在女巫的黑暗统治后,和雄狮亚斯兰并肩作战,帮助纳尼亚开始了复国之举。

◎获奖情况 (共10项)

第78届奥斯卡金像奖 (2006)

最佳视觉效果(提名)

最佳混音(提名)

最佳化妆

第63届金球奖 (2006)

电影类 最佳原创配乐(提名)

└──哈里·格雷格森-威廉姆斯 (id:1056131)

电影类 最佳原创歌曲(提名)

└──阿兰妮斯·莫利塞特 (id:1017925)

第59届英国电影学院奖 (2006)

电影奖 最佳化妆/发型

电影奖 最佳服装设计(提名)

└──伊西斯·马森登 (id:1019610)

电影奖 最佳特殊视觉效果(提名)

第33届动画安妮奖 (2006)

最佳动画角色(提名)

└──麦特·沙姆韦 (id:1305856)

第15届MTV电影奖 (2006)

MTV电影奖 最佳反派(提名)

└──蒂尔达·斯文顿 (id:1025152)

  1. 合集文件列表:

  2. 1.The.Chronicles.of.Narnia.1.2005.BluRay.1080p.2Audio.DTS-HD.MA5.1.x265.10bit-ALT.mkv 11.18GB

  3. 2.The.Chronicles.of.Narnia.2.2008.BluRay.1080p.2Audio.DTS-HD.MA5.1.x265.10bit-ALT.mkv 17.95GB

  4. 3.The.Chronicles.of.Narnia.3.2010.BluRay.1080p.2Audio.DTS-HD.MA5.1.x265.10bit-ALT.mkv 17.92GB


复制代码

  1. ##### MediaInfo ######

  2. General

  3. Unique ID : 276501957287567413382488468753959038171 (0xD004570523D91B8707490F2541F32CDB)

  4. Complete name : The.Chronicles.of.Narnia.1.2005.BluRay.1080p.2Audio.DTS-HD.MA5.1.x265.10bit-ALT.mkv

  5. Format : Matroska

  6. Format version : Version 4

  7. File size : 11.2 GiB

  8. Duration : 2 h 22 min

  9. Overall bit rate mode : Variable

  10. Overall bit rate : 11.2 Mb/s

  11. Encoded date : UTC 2020-04-27 14:17:04

  12. Writing application : mkvmerge v45.0.0 ('Heaven in Pennies') 64-bit

  13. Writing library : libebml v1.3.10 + libmatroska v1.5.2


  14. Video

  15. ID : 1

  16. Format : HEVC

  17. Format/Info : High Efficiency Video Coding

  18. Format profile : Main [email protected]@High

  19. Codec ID : V_MPEGH/ISO/HEVC

  20. Duration : 2 h 22 min

  21. Bit rate : 7 610 kb/s

  22. Width : 1 920 pixels

  23. Height : 816 pixels

  24. Display aspect ratio : 2.35:1

  25. Frame rate mode : Constant

  26. Frame rate : 23.976 (24000/1001/53354) FPS

  27. Color space : YUV

  28. Chroma subsampling : 4:2:0

  29. Bit depth : 10 bits

  30. Bits/(Pixel*Frame) : 0.203

  31. Stream size : 7.59 GiB (68%)

  32. Title : HEVC, [email protected]@High, 24/1.001 fps @ 7610 kbps

  33. Writing library : x265 3.3+1-g396395b2b:[Windows][GCC 9.2.0][64 bit] 10bit

  34. Encoding settings : cpuid=533541111039 / frame-threads=5 / numa-pools=44,44 / wpp / pmode / pme / no-psnr / no-ssim / log-level=2 / input-csp=1 / input-res=1920x816 / interlace=0 / total-frames=205515 / level-idc=51 / high-tier=1 / uhd-bd=0 / ref=5 / no-allow-non-conformance / no-repeat-headers / annexb / no-aud / no-hrd / info / hash=0 / no-temporal-layers / open-gop / min-keyint=24 / keyint=240 / gop-lookahead=0 / bframes=6 / b-adapt=2 / b-pyramid / bframe-bias=0 / rc-lookahead=40 / lookahead-slices=0 / NTMzNTQ=uuDQuD2mJt9fsCf / scenecut=40 / hist-scenecut=0 / radl=0 / no-splice / no-intra-refresh / ctu=32 / min-cu-size=8 / no-rect / no-amp / max-tu-size=32 / tu-inter-depth=3 / tu-intra-depth=3 / limit-tu=4 / rdoq-level=2 / dynamic-rd=0.00 / no-ssim-rd / signhide / no-tskip / nr-intra=0 / nr-inter=0 / no-constrained-intra / no-strong-intra-smoothing / max-merge=4 / limit-refs=1 / limit-modes / me=3 / subme=4 / merange=25 / temporal-mvp / no-frame-dup / no-hme / weightp / weightb / no-analyze-src-pics / deblock=-3:-3 / no-sao / no-sao-non-deblock / rd=6 / selective-sao=0 / no-early-skip / rskip / no-fast-intra / no-tskip-fast / no-cu-lossless / b-intra / no-splitrd-skip / rdpenalty=0 / psy-rd=2.00 / psy-rdoq=1.00 / no-rd-refine / no-lossless / cbqpoffs=0 / crqpoffs=0 / rc=crf / crf=17.0 / qcomp=0.65 / qpstep=4 / stats-write=0 / stats-read=0 / vbv-maxrate=80000 / vbv-bufsize=80000 / vbv-init=0.9 / crf-max=0.0 / crf-min=0.0 / ipratio=1.40 / pbratio=1.30 / aq-mode=2 / aq-strength=0.85 / cutree / zone-count=0 / no-strict-cbr / qg-size=32 / no-rc-grain / qpmax=69 / qpmin=0 / no-const-vbv / sar=1 / overscan=0 / videoformat=5 / range=0 / colorprim=1 / transfer=1 / colormatrix=1 / chromaloc=0 / display-window=0 / cll=0,0 / min-luma=0 / max-luma=1023 / log2-max-poc-lsb=8 / vui-timing-info / vui-hrd-info / slices=1 / no-opt-qp-pps / no-opt-ref-list-length-pps / no-multi-pass-opt-rps / scenecut-bias=0.05 / hist-threshold=0.01 / no-opt-cu-delta-qp / no-aq-motion / no-hdr10 / no-hdr10-opt / no-dhdr10-opt / no-idr-recovery-sei / analysis-reuse-level=0 / analysis-save-reuse-level=0 / analysis-load-reuse-level=0 / scale-factor=0 / refine-intra=0 / refine-inter=0 / refine-mv=1 / refine-ctu-distortion=0 / no-limit-sao / ctu-info=0 / no-lowpass-dct / refine-analysis-type=0 / copy-pic=1 / max-ausize-factor=1.0 / no-dynamic-refine / no-single-sei / no-hevc-aq / no-svt / no-field / qp-adaptation-range=1.00 / no-scenecut-aware-qpconformance-window-offsets / right=0 / bottom=0 / NTMzNTQ=

  35. Language : English

  36. Default : Yes

  37. Forced : No

  38. Color range : Limited

  39. Color primaries : BT.709

  40. Transfer characteristics : BT.709

  41. Matrix coefficients : BT.709


  42. Audio #1

  43. ID : 2

  44. Format : DTS XLL

  45. Format/Info : Digital Theater Systems

  46. Commercial name : DTS-HD Master Audio

  47. Codec ID : A_DTS

  48. Duration : 2 h 22 min

  49. Bit rate mode : Variable

  50. Bit rate : 2 255 kb/s

  51. Channel(s) : 6 channels

  52. Channel layout : C L R Ls Rs LFE

  53. Sampling rate : 48.0 kHz

  54. Frame rate : 93.750 FPS (512 SPF)

  55. Bit depth : 16 bits

  56. Compression mode : Lossless

  57. Stream size : 2.25 GiB (20%)

  58. Title : English DTS-HD Master Audio 5.1 @ 2256 kbps

  59. Language : English

  60. Default : Yes

  61. Forced : No


  62. Audio #2

  63. ID : 3

  64. Format : AC-3

  65. Format/Info : Audio Coding 3

  66. Commercial name : Dolby Digital

  67. Codec ID : A_AC3

  68. Duration : 2 h 22 min

  69. Bit rate mode : Constant

  70. Bit rate : 192 kb/s

  71. Channel(s) : 2 channels

  72. Channel layout : L R

  73. Sampling rate : 48.0 kHz

  74. Frame rate : 31.250 FPS (1536 SPF)

  75. Compression mode : Lossy

  76. Stream size : 196 MiB (2%)

  77. Title : English Dolby Digital Audio 2.0 @ 192 kbps Commentary 1

  78. Language : English

  79. Service kind : Complete Main

  80. Default : No

  81. Forced : No


  82. Audio #3

  83. ID : 4

  84. Format : AC-3

  85. Format/Info : Audio Coding 3

  86. Commercial name : Dolby Digital

  87. Codec ID : A_AC3

  88. Duration : 2 h 22 min

  89. Bit rate mode : Constant

  90. Bit rate : 192 kb/s

  91. Channel(s) : 2 channels

  92. Channel layout : L R

  93. Sampling rate : 48.0 kHz

  94. Frame rate : 31.250 FPS (1536 SPF)

  95. Compression mode : Lossy

  96. Stream size : 196 MiB (2%)

  97. Title : English Dolby Digital Audio 2.0 @ 192 kbps Commentary 2

  98. Language : English

  99. Service kind : Complete Main

  100. Default : No

  101. Forced : No


  102. Audio #4

  103. ID : 5

  104. Format : AC-3

  105. Format/Info : Audio Coding 3

  106. Commercial name : Dolby Digital

  107. Codec ID : A_AC3

  108. Duration : 2 h 22 min

  109. Bit rate mode : Constant

  110. Bit rate : 640 kb/s

  111. Channel(s) : 6 channels

  112. Channel layout : L R C LFE Ls Rs

  113. Sampling rate : 48.0 kHz

  114. Frame rate : 31.250 FPS (1536 SPF)

  115. Compression mode : Lossy

  116. Stream size : 654 MiB (6%)

  117. Title : Mandarin Dolby Digital Audio 5.1 @ 640 kbps

  118. Language : Chinese

  119. Service kind : Complete Main

  120. Default : No

  121. Forced : No


  122. Text #1

  123. ID : 6

  124. Format : PGS

  125. Codec ID : S_HDMV/PGS

  126. Codec ID/Info : Picture based subtitle format used on BDs/HD-DVDs

  127. Duration : 2 h 16 min

  128. Bit rate : 20.3 kb/s

  129. Count of elements : 2569

  130. Stream size : 19.9 MiB (0%)

  131. Title : Eng/SUP

  132. Language : English

  133. Default : No

  134. Forced : No


  135. Text #2

  136. ID : 7

  137. Format : PGS

  138. Codec ID : S_HDMV/PGS

  139. Codec ID/Info : Picture based subtitle format used on BDs/HD-DVDs

  140. Duration : 2 h 18 min

  141. Bit rate : 72.8 kb/s

  142. Count of elements : 5176

  143. Stream size : 72.3 MiB (1%)

  144. Title : Eng/SUP Commentary 1

  145. Language : English

  146. Default : No

  147. Forced : No


  148. Text #3

  149. ID : 8

  150. Format : PGS

  151. Codec ID : S_HDMV/PGS

  152. Codec ID/Info : Picture based subtitle format used on BDs/HD-DVDs

  153. Duration : 2 h 17 min

  154. Bit rate : 83.1 kb/s

  155. Count of elements : 6040

  156. Stream size : 81.8 MiB (1%)

  157. Title : Eng/SUP Commentary 2

  158. Language : English

  159. Default : No

  160. Forced : No


  161. Text #4

  162. ID : 9

  163. Format : PGS

  164. Codec ID : S_HDMV/PGS

  165. Codec ID/Info : Picture based subtitle format used on BDs/HD-DVDs

  166. Duration : 2 h 13 min

  167. Bit rate : 53.0 kb/s

  168. Count of elements : 4620

  169. Stream size : 50.5 MiB (0%)

  170. Title : Chs/SUP 原盘简体Commentary 1

  171. Language : Chinese

  172. Default : No

  173. Forced : No


  174. Text #5

  175. ID : 10

  176. Format : PGS

  177. Codec ID : S_HDMV/PGS

  178. Codec ID/Info : Picture based subtitle format used on BDs/HD-DVDs

  179. Duration : 2 h 13 min

  180. Bit rate : 54.1 kb/s

  181. Count of elements : 4836

  182. Stream size : 51.9 MiB (0%)

  183. Title : Chs/SUP 原盘简体Commentary 2

  184. Language : Chinese

  185. Default : No

  186. Forced : No


  187. Text #6

  188. ID : 11

  189. Format : PGS

  190. Codec ID : S_HDMV/PGS

  191. Codec ID/Info : Picture based subtitle format used on BDs/HD-DVDs

  192. Duration : 2 h 11 min

  193. Bit rate : 16.8 kb/s

  194. Count of elements : 2140

  195. Stream size : 15.9 MiB (0%)

  196. Title : Chs/SUP 原盘简体

  197. Language : Chinese

  198. Default : Yes

  199. Forced : No


  200. Text #7

  201. ID : 12

  202. Format : PGS

  203. Codec ID : S_HDMV/PGS

  204. Codec ID/Info : Picture based subtitle format used on BDs/HD-DVDs

  205. Duration : 2 h 12 min

  206. Bit rate : 13.9 kb/s

  207. Count of elements : 1836

  208. Stream size : 13.2 MiB (0%)

  209. Title : Chs/SUP 原盘简体

  210. Language : Chinese

  211. Default : No

  212. Forced : No


  213. Text #8

  214. ID : 13

  215. Format : PGS

  216. Codec ID : S_HDMV/PGS

  217. Codec ID/Info : Picture based subtitle format used on BDs/HD-DVDs

  218. Duration : 2 h 10 min

  219. Bit rate : 10.8 kb/s

  220. Count of elements : 327

  221. Stream size : 10.1 MiB (0%)

  222. Title : Chs/SUP 原盘简体

  223. Language : Chinese

  224. Default : No

  225. Forced : No


  226. Menu

  227. 00:00:00.000 : en:第 01 章

  228. 00:07:07.636 : en:第 02 章

  229. 00:11:15.049 : en:第 03 章

  230. 00:18:23.144 : en:第 04 章

  231. 00:24:34.223 : en:第 05 章

  232. 00:29:45.784 : en:第 06 章

  233. 00:34:55.760 : en:第 07 章

  234. 00:39:29.826 : en:第 08 章

  235. 00:46:50.975 : en:第 09 章

  236. 00:50:23.354 : en:第 10 章

  237. 00:56:43.150 : en:第 11 章

  238. 01:01:15.505 : en:第 12 章

  239. 01:12:16.749 : en:第 13 章

  240. 01:18:57.232 : en:第 14 章

  241. 01:24:36.405 : en:第 15 章

  242. 01:31:49.879 : en:第 16 章

  243. 01:37:41.606 : en:第 17 章

  244. 01:46:13.617 : en:第 18 章

  245. 01:49:13.881 : en:第 19 章

  246. 01:52:39.169 : en:第 20 章

  247. 01:55:00.727 : en:第 21 章

  248. 01:59:29.079 : en:第 22 章

  249. 02:05:30.022 : en:第 23 章

  250. 02:11:34.053 : en:第 24 章




复制代码



文件下载


除非特别注明,本文『纳尼亚传奇[共3部合集][国英多音轨/简英字幕].The.Chronicles.of.Narnia.2005-2010.BluRay.1080p.2Audio.DTS-HD.MA5.1.x265.10』来源于互联网机器人自动抓取,非本站原创。 浮游电影网不对本文拥有版权,如有侵犯,请联系邮箱:fuyouu#yandex.com[#换成@]投诉。我们会在15个工作日内删除。 但烦请转载时请标明出处:“本文转载于『浮游电影网』,原文地址:https://www.fuyouu.com/21884.html

评论吧骚年!

发表你的见解   

昵称*

E-mail*(建议输入,以便收到博主回复的提示邮件)

验证码*

您可以使用eMule或eMule Mod(Windows)、aMule(Win、Linux、Mac)等软件下载eD2k链接。。
eMule收藏集(.emulecollection)文件是您选中的所有链接的列表文件。eMule可以直接下载它们。
按住SHIFT键选择可以选中多个选择框。
可用文件名和大小选择器来选择文件。
文件名选择器帮您根据文件名称或后缀来选择文件。不分大小写。
符号使用:
和:空格( )、+
不包含:-
或:|
转义:一对英文引号("");
匹配开头:^
匹配结尾:$
例如:
选中所有名称中包含有“eMule”或“0.49c”字眼,但不包含有“exe”字眼的:emule|0.49c -exe
选中所有名称的开头是“eMule”,结尾是“0.49c”的:^emule 0.49c$
选中所有名称中带有“eMule 0.49c”的(必须是“eMule 0.49c”,中间没有别的字符,不能是“eMule fake 0.49c”),需要转义:"emule 0.49c"
大小选择器帮您根据文件大小选择文件。