当前位置: 首页 >> 日韩电影 >> 新哥斯拉[中英字幕].Shin.Godzilla.2016.2160p.UHD.Bluray.HDR10.x265.2Audia-PAGE 15.34GB >> 正文

新哥斯拉[中英字幕].Shin.Godzilla.2016.2160p.UHD.Bluray.HDR10.x265.2Audia-PAGE 15.34GB

2022年05月05日 10:24:57     电影发布:来源于网络     电影分类:日韩电影     评论(0)    

◎译 名 新哥斯拉 / 真?哥斯拉(港) / 正宗哥吉拉(台) / 新哥斯拉·东京陷落 / 哥斯拉:复活 / 新·哥斯拉 / 新哥吉拉 / Godzilla Resurgence / Shin Godzilla

◎片 名 シン?ゴジラ

◎年 代 2016

◎产 地 日本

◎类 别 剧情 / 科幻 / 灾难

◎语 言 日语 / 英语

◎上映日期 2016-07-29(日本)

◎IMDb链接 https://www.imdb.com/title/tt4262980/

◎豆瓣评分 6.7/10 (42359人评价)

◎豆瓣链接 https://movie.douban.com/subject/26279124/

◎片 长 120分钟

◎导 演 庵野秀明 Hideaki Anno (id:1059748)

樋口真嗣 Shinji Higuchi (id:1051346)

◎编 剧 庵野秀明 Hideaki Anno (id:1059748)

本多猪四郎 Ishir? Honda (id:1092208)

◎演 员 长谷川博己 Hiroki Hasegawa (id:1275145)

竹野内丰 Yutaka Takenouchi (id:1154235)

石原里美 Satomi Ishihara (id:1016930)

高良健吾 Kengo Kora (id:1042089)

大杉涟 Ren Ohsugi (id:1134227)

柄本明 Akira Emoto (id:1042056)

余贵美子 Kimiko Yo (id:1048388)

市川实日子 Mikako Ichikawa (id:1019576)

国村隼 Jun Kunimura (id:1041791)

平泉成 Sei Hiraizumi (id:1019960)

松尾谕 Satoru Matsuo (id:1336214)

渡边哲 Tetsu Watanabe (id:1321530)

中村育二 Ikuji Nakamura (id:1039341)

矢岛健一 Kenichi Yajima (id:1317536)

津田宽治 Kanji Tsuda (id:1054163)

冢本晋也 Shinya Tsukamoto (id:1014223)

高桥一生 Issey Takahashi (id:1275907)

光石研 Ken Mitsuishi (id:1029037)

古田新太 Arata Furuta (id:1037957)

松尾铃木 Suzuki Matsuo (id:1037741)

鹤见辰吾 Shingo Tsurumi (id:1017055)

泷正则 Pierre Taki (id:1002495)

片桐入 Hairi Katagiri (id:1015257)

小出惠介 Keisuke Koide (id:1033257)

斋藤工 Takumi Sait? (id:1025531)

前田敦子 Atsuko Maeda (id:1275297)

手塚通 Toru Tezuka (id:1314870)

野间口彻 T?ru Nomaguchi (id:1338104)

黑田大辅 Daisuke Kuroda (id:1338342)

桥本润 Jun Hashimoto (id:1034711)

小林隆 Takashi Kobayashi (id:1312824)

诹访太朗 Tar? Suwa (id:1151085)

藤木孝 Takashi Fujiki (id:1035222)

岛田久作 Ky?saku Shimada (id:1142576)

神尾佑 Y? Kamio (id:1314937)

三浦贵大 Takahiro Miura (id:1315155)

茂吕师冈 Moro Morooka (id:1312756)

犬童一心 Isshin Inudou (id:1019646)

原一男 Kazuo Hara (id:1096193)

绪方明 Akira Ogata (id:1293488)

石垣佑磨 Yuma Ishigaki (id:1276179)

野村万斋 Mansai Nomura (id:1001242)

吉田乌龙太 Oolongta Yoshida (id:1390508)

浜田晃 Akira Hamada (id:1442755)

佐藤贡三 K?z? Sat? (id:1442263)

原知佐子 Chisako Hara (id:1017251)

手冢弘道 Hiromichi Tezuka (id:1411699)

古川慎 Makoto Furukawa (id:1348459)

大塚弘太 Hirota Otsuka (id:1388851)

加藤厚成 Kousei Kato (id:1399175)

庵野秀明 Hideaki Anno (id:1059748)

杉原枝利香 Erika Sugihara (id:1373413)

鹭巢诗郎 Shir? Sagisu (id:1051546)

山田康介 Kosuke Yamada (id:1467836)

庵野秀明 Hideaki Anno (id:1059748)

林田裕至 Yuji Hayashida (id:1048854)

尾上克郎 Katsuro Onoue (id:1309061)

山崎贵 Takashi Yamazaki (id:1301398)

尾上克郎 Katsuro Onoue (id:1309061)

樋口真嗣 Shinji Higuchi (id:1051346)

大屋哲男 Tetsuo Ohya (id:1308210)

◎简 介

平静的东京湾突然发生海难,当人们还在猜想是否海底火山爆发时,一只巨大的怪兽冒出水面并登陆城区。日本政府主导成立了“巨大不明生物灾害部”,网罗了国家中的奇人异士加盟,研究发现怪兽是受到放射性污染而诞生出来的,命名为哥斯拉;尝试了各种办法均宣告失败的“灾害部”最后不得不决定对哥斯拉采取武装攻击。但是这个巨大的怪兽哥斯拉完成了更恐怖的进化,整个东京将要沦为一片人间地狱,一场人类与怪兽的最终决战即将到来……

该片是2017年日本票房突破80亿的日本真人电影,并横扫第40届日本电影学院七项大奖;片中的怪兽也被称为整个哥斯拉系列中“最大版本”。

◎获奖情况 (共12项)

第40届日本电影学院奖 (2017)

最佳影片

最佳导演

最佳男主角(提名)

└──长谷川博己 (id:1275145)

最佳女配角(提名)

最佳配乐(提名)

└──鹭巢诗郎 (id:1051546)

最佳摄影

最佳美术指导

最佳照明

最佳录音

最佳剪辑

第11届亚洲电影大奖 (2017)

最佳视觉效果

└──大屋哲男 (id:1308210)

最佳音响(提名)

└──中村淳 (id:1292892)

  1. ##### MediaInfo ######

  2. General

  3. Unique ID : 35678665225893898026298585399770540031 (0x1AD776025AD552746A3857CB82D8E7FF)

  4. Complete name : Shin.Godzilla.2016.2160p.UHD.Bluray.HDR10.x265.2Audia-PAGE.mkv

  5. Format : Matroska

  6. Format version : Version 4

  7. File size : 15.3 GiB

  8. Duration : 1 h 59 min

  9. Overall bit rate mode : Variable

  10. Overall bit rate : 18.3 Mb/s

  11. Movie name : Shin Gojira AKA Shin Godzilla [2016] UHD BluRay

  12. Encoded date : UTC 2022-05-03 06:07:05

  13. Writing application : mkvmerge v64.0.0 ('Willows') 64-bit

  14. Writing library : libebml v1.4.2 + libmatroska v1.6.4


  15. Video

  16. ID : 1

  17. Format : HEVC

  18. Format/Info : High Efficiency Video Coding

  19. Format profile : Main [email protected]@Main

  20. Codec ID : V_MPEGH/ISO/HEVC

  21. Duration : 1 h 59 min

  22. Bit rate : 14.2 Mb/s

  23. Width : 3 840 pixels

  24. Height : 1 608 pixels

  25. Display aspect ratio : 2.40:1

  26. Frame rate mode : Constant

  27. Frame rate : 23.976 (24000/1001/53354) FPS

  28. Color space : YUV

  29. Chroma subsampling : 4:2:0 (Type 2)

  30. Bit depth : 10 bits

  31. Bits/(Pixel*Frame) : 0.096

  32. Stream size : 11.9 GiB (78%)

  33. Writing library : x265 3.5+20-17839cc0d:[Windows][GCC 11.2.0][64 bit] 10bit

  34. Encoding settings : cpuid=533541111039 / frame-threads=5 / numa-pools=36,36 / wpp / no-pmode / no-pme / no-psnr / no-ssim / log-level=2 / input-csp=1 / input-res=3840x1608 / interlace=0 / total-frames=172392 / level-idc=0 / high-tier=1 / uhd-bd=0 / ref=6 / no-allow-non-conformance / repeat-headers / annexb / no-aud / no-eob / no-eos / no-hrd / info / hash=0 / no-temporal-layers / no-open-gop / min-keyint=23 / keyint=250 / gop-lookahead=0 / bframes=14 / b-adapt=2 / b-pyramid / bframe-bias=0 / rc-lookahead=75 / lookahead-slices=8 / NTMzNTQ=uuDQuD2mJt9fsCf / scenecut=40 / no-hist-scenecut / radl=0 / no-splice / no-intra-refresh / ctu=32 / min-cu-size=8 / no-rect / no-amp / max-tu-size=32 / tu-inter-depth=1 / tu-intra-depth=1 / limit-tu=0 / rdoq-level=0 / dynamic-rd=0.00 / no-ssim-rd / signhide / no-tskip / nr-intra=0 / nr-inter=0 / no-constrained-intra / no-strong-intra-smoothing / max-merge=3 / limit-refs=1 / no-limit-modes / me=3 / subme=7 / merange=48 / temporal-mvp / no-frame-dup / hme / Level / merange / L0,L1,L2=24,36,48 / weightp / weightb / no-analyze-src-pics / deblock=0:0 / sao / no-sao-non-deblock / rd=4 / selective-sao=4 / early-skip / rskip / no-fast-intra / no-tskip-fast / no-cu-lossless / b-intra / no-splitrd-skip / rdpenalty=2 / psy-rd=2.00 / psy-rdoq=0.00 / no-rd-refine / no-lossless / cbqpoffs=0 / crqpoffs=0 / rc=crf / crf=15.0 / qcomp=0.60 / qpstep=4 / stats-write=0 / stats-read=0 / ipratio=1.40 / pbratio=1.30 / aq-mode=1 / aq-strength=1.00 / cutree / zone-count=0 / no-strict-cbr / qg-size=32 / no-rc-grain / qpmax=69 / qpmin=0 / no-const-vbv / sar=0 / overscan=0 / videoformat=5 / range=0 / colorprim=9 / transfer=16 / colormatrix=9 / chromaloc=1 / chromaloc-top=2 / chromaloc-bottom=2 / display-window=0 / cll=0,0 / min-luma=0 / max-luma=1023 / log2-max-poc-lsb=8 / vui-timing-info / vui-hrd-info / slices=1 / no-opt-qp-pps / no-opt-ref-list-length-pps / no-multi-pass-opt-rps / scenecut-bias=0.05 / hist-threshold=0.03 / no-opt-cu-delta-qp / aq-motion / hdr10 / no-hdr10-opt / no-dhdr10-opt / no-idr-recovery-sei / analysis-reuse-level=0 / analysis-save-reuse-level=0 / analysis-load-reuse-level=0 / scale-factor=0 / refine-intra=0 / refine-inter=0 / refine-mv=1 / refine-ctu-distortion=0 / no-limit-sao / ctu-info=0 / no-lowpass-dct / refine-analysis-type=0 / copy-pic=1 / max-ausize-factor=1.0 / no-dynamic-refine / no-single-sei / no-hevc-aq / no-svt / no-field / qp-adaptation-range=1.00 / scenecut-aware-qp=0conformance-window-offsets / right=0 / bottom=0 / NTMzNTQ= / decoder-max-rate=0 / no-vbv-live-multi-pass

  35. Default : Yes

  36. Forced : No

  37. Color range : Limited

  38. Color primaries : BT.2020

  39. Transfer characteristics : PQ

  40. Matrix coefficients : BT.2020 non-constant


  41. Audio #1

  42. ID : 2

  43. Format : DTS XLL

  44. Format/Info : Digital Theater Systems

  45. Commercial name : DTS-HD Master Audio

  46. Codec ID : A_DTS

  47. Duration : 1 h 59 min

  48. Bit rate mode : Variable

  49. Bit rate : 2 601 kb/s

  50. Channel(s) : 4 channels

  51. Channel layout : C L R LFE

  52. Sampling rate : 48.0 kHz

  53. Frame rate : 93.750 FPS (512 SPF)

  54. Bit depth : 24 bits

  55. Compression mode : Lossless

  56. Stream size : 2.18 GiB (14%)

  57. Language : Japanese

  58. Default : Yes

  59. Forced : No


  60. Audio #2

  61. ID : 3

  62. Format : FLAC

  63. Format/Info : Free Lossless Audio Codec

  64. Codec ID : A_FLAC

  65. Duration : 1 h 59 min

  66. Bit rate mode : Variable

  67. Bit rate : 1 443 kb/s

  68. Channel(s) : 4 channels

  69. Channel layout : L R C LFE

  70. Sampling rate : 48.0 kHz

  71. Frame rate : 11.719 FPS (4096 SPF)

  72. Bit depth : 24 bits

  73. Detected bit depth : 20 bits

  74. Compression mode : Lossless

  75. Stream size : 1.21 GiB (8%)

  76. Title : English Dub

  77. Writing library : libFLAC 1.2.1 (UTC 2007-09-17)

  78. Language : English

  79. Default : No

  80. Forced : No


  81. Text #1

  82. ID : 4

  83. Format : PGS

  84. Muxing mode : zlib

  85. Codec ID : S_HDMV/PGS

  86. Codec ID/Info : Picture based subtitle format used on BDs/HD-DVDs

  87. Duration : 1 h 59 min

  88. Bit rate : 45.7 kb/s

  89. Count of elements : 3538

  90. Stream size : 39.0 MiB (0%)

  91. Language : English

  92. Default : Yes

  93. Forced : No


  94. Text #2

  95. ID : 5

  96. Format : PGS

  97. Muxing mode : zlib

  98. Codec ID : S_HDMV/PGS

  99. Codec ID/Info : Picture based subtitle format used on BDs/HD-DVDs

  100. Duration : 1 h 59 min

  101. Bit rate : 7 160 b/s

  102. Count of elements : 533

  103. Stream size : 6.11 MiB (0%)

  104. Title : Non-Japanese sense

  105. Language : English

  106. Default : No

  107. Forced : No


  108. Text #3

  109. ID : 6

  110. Format : PGS

  111. Muxing mode : zlib

  112. Codec ID : S_HDMV/PGS

  113. Codec ID/Info : Picture based subtitle format used on BDs/HD-DVDs

  114. Duration : 1 h 52 min

  115. Bit rate : 40.8 kb/s

  116. Count of elements : 3154

  117. Stream size : 33.0 MiB (0%)

  118. Title : Chinese Simplified

  119. Language : Chinese

  120. Default : No

  121. Forced : No


  122. Text #4

  123. ID : 7

  124. Format : PGS

  125. Muxing mode : zlib

  126. Codec ID : S_HDMV/PGS

  127. Codec ID/Info : Picture based subtitle format used on BDs/HD-DVDs

  128. Duration : 1 h 52 min

  129. Bit rate : 41.9 kb/s

  130. Count of elements : 3154

  131. Stream size : 33.9 MiB (0%)

  132. Title : Chinese Traditional

  133. Language : Chinese

  134. Default : No

  135. Forced : No


  136. Text #5

  137. ID : 8

  138. Format : PGS

  139. Muxing mode : zlib

  140. Codec ID : S_HDMV/PGS

  141. Codec ID/Info : Picture based subtitle format used on BDs/HD-NewHD

复制代码



文件下载


除非特别注明,本文『新哥斯拉[中英字幕].Shin.Godzilla.2016.2160p.UHD.Bluray.HDR10.x265.2Audia-PAGE 15.34GB』来源于互联网机器人自动抓取,非本站原创。 浮游电影网不对本文拥有版权,如有侵犯,请联系邮箱:fuyouu#yandex.com[#换成@]投诉。我们会在15个工作日内删除。 但烦请转载时请标明出处:“本文转载于『浮游电影网』,原文地址:https://www.fuyouu.com/21883.html

评论吧骚年!

发表你的见解   

昵称*

E-mail*(建议输入,以便收到博主回复的提示邮件)

验证码*

您可以使用eMule或eMule Mod(Windows)、aMule(Win、Linux、Mac)等软件下载eD2k链接。。
eMule收藏集(.emulecollection)文件是您选中的所有链接的列表文件。eMule可以直接下载它们。
按住SHIFT键选择可以选中多个选择框。
可用文件名和大小选择器来选择文件。
文件名选择器帮您根据文件名称或后缀来选择文件。不分大小写。
符号使用:
和:空格( )、+
不包含:-
或:|
转义:一对英文引号("");
匹配开头:^
匹配结尾:$
例如:
选中所有名称中包含有“eMule”或“0.49c”字眼,但不包含有“exe”字眼的:emule|0.49c -exe
选中所有名称的开头是“eMule”,结尾是“0.49c”的:^emule 0.49c$
选中所有名称中带有“eMule 0.49c”的(必须是“eMule 0.49c”,中间没有别的字符,不能是“eMule fake 0.49c”),需要转义:"emule 0.49c"
大小选择器帮您根据文件大小选择文件。