当前位置: 首页 >> 港台电影 >> 青春弑恋[国语音轨].Terrorizers.2021.CHINESE.1080p.WEBRip.x264-VXT 2.42GB >> 正文

青春弑恋[国语音轨].Terrorizers.2021.CHINESE.1080p.WEBRip.x264-VXT 2.42GB

2022年05月04日 12:17:15     电影发布:来源于网络     电影分类:港台电影     评论(0)    

青春弑恋[国语音轨].Terrorizers.2021.CHINESE.1080p.WEBRip.x264 VXT 2.42GB  港台电影  第1张

青春弑恋[国语音轨].Terrorizers.2021.CHINESE.1080p.WEBRip.x264 VXT 2.42GB  港台电影  第2张

◎译 名 青春弑恋 / Terrorizers

◎片 名 青春弒戀

◎年 代 2021

◎产 地 中国台湾

◎类 别 剧情

◎语 言 汉语普通话

◎上映日期 2021-11-19(中国台湾) / 2021-09-10(多伦多电影节)

◎IMDb链接 https://www.imdb.com/title/tt15138308/

◎豆瓣评分 5.1/10 (721人评价)

◎豆瓣链接 https://movie.douban.com/subject/34973487/

◎片 长 127分钟

◎导 演 何蔚庭 Wi Ding Ho (id:1286725)

胡至欣 Sunny Chih-Hsin Hu (id:1461532)

◎编 剧 何蔚庭 Wi Ding Ho (id:1286725)

宋康欣 Natasha Sung (id:1467661)

◎演 员 林柏宏 Austin Lin (id:1275324)

丁宁 Ning Ding (id:1319882)

李沐 Moon Lee (id:1437605)

陈庭妮 Annie Chen (id:1317166)

姚爱寗 Pi Pi Yao (id:1351444)

林哲熹 JC Lin (id:1371841)

信 Shin (id:1275268)

黄尚禾 Shang-Ho Huang (id:1330444)

洪胜德 Honduras (id:1324552)

黄婕菲 Jie-Fei Huang (id:1365775)

汤志伟 Chih Wei Tang (id:1312863)

许时豪 Kerr Hsu (id:1371847)

王淮仲 Huai-Chung Wang (id:1372427)

葛丞 Cheng Ko (id:1430337)

吴芮甄 Jui-chen Wu (id:1370489)

胡至欣 Sunny Chih-Hsin Hu (id:1461532)

谢青翰 Cheer (id:1467660)

让-路易斯·维亚拉 Jean-Louis Vialard (id:1405405)

李蕙 (id:1462458)

何蔚庭 Wi Ding Ho (id:1286725)

萧仁杰 Jen-Chieh Hsiao (id:1462456)

杜笃之 Du-Che Tu (id:1275159)

江宜真 Yi Chen Chiang (id:1416625)

陈冠廷 Kuan-Ting Chen (id:1462460)

◎简 介

故事主要讲述六位看似毫无关联,却相互影响着彼此,最后卷入一起台北车站随机砍人案件的故事,将透过爱情、欲望、犯罪包装6个角色背后赋予的任务与概念,探讨Z世代的生活环境,环绕着虚拟、线上游戏、网红、社会舆论、家庭问题等等??承载着这些来自虚拟却又真实的视线,一场人人畏惧的杀人案件中,我们可以看见「没有人是局外人」。

  1. Video

  2. ID : 1

  3. Format : AVC

  4. Format/Info : Advanced Video Codec

  5. Format profile : [email protected]

  6. Format settings : CABAC / 4 Ref Frames

  7. Format settings, CABAC : Yes

  8. Format settings, Reference frames : 4 frames

  9. Codec ID : avc1

  10. Codec ID/Info : Advanced Video Coding

  11. Duration : 2 h 7 min

  12. Bit rate : 2 500 kb/s

  13. Width : 1 920 pixels

  14. Height : 804 pixels

  15. Display aspect ratio : 2.40:1

  16. Frame rate mode : Constant

  17. Frame rate : 24.000 FPS

  18. Color space : YUV

  19. Chroma subsampling : 4:2:0

  20. Bit depth : 8 bits

  21. Scan type : Progressive

  22. Bits/(Pixel*Frame) : 0.067

  23. Stream size : 2.22 GiB (92%)

  24. Writing library : x264 core 152 r2851M ba24899

  25. Encoding settings : cabac=1 / ref=4 / deblock=1:-1:-1 / analyse=0x3:0x113 / me=umh / subme=9 / psy=1 / psy_rd=1.00:0.15 / mixed_ref=1 / me_range=24 / chroma_me=1 / trellis=2 / 8x8dct=1 / cqm=0 / deadzone=21,11 / fast_pskip=1 / chroma_qp_offset=-3 / threads=16 / lookahead_threads=4 / sliced_threads=0 / nr=0 / decimate=1 / interlaced=0 / NTMzNTQ= / bluray_compat=0 / constrained_intra=0 / bframes=3 / b_pyramid=2 / b_adapt=2 / b_bias=0 / direct=3 / weightb=1 / open_gop=0 / weightp=2 / keyint=250 / keyint_min=25 / NTMzNTQ=uuDQuD2mJt9fsCf / scenecut=40 / intra_refresh=0 / rc_lookahead=50 / rc=2pass / mbtree=1 / bitrate=2500 / ratetol=1.0 / qcomp=0.60 / qpmin=0 / qpmax=69 / qpstep=4 / cplxblur=20.0 / qblur=0.5 / vbv_maxrate=31250 / vbv_bufsize=31250 / nal_hrd=none / filler=0 / NTMzNTQ=LmsMAP37EqsCpk / ip_ratio=1.40 / aq=3:1.00

  26. Encoded date : UTC 2022-05-03 17:21:44

  27. Tagged date : UTC 2022-05-03 17:21:44

  28. Codec configuration box : avcC


  29. Audio

  30. ID : 2

  31. Format : AAC LC

  32. Format/Info : Advanced Audio Codec Low Complexity

  33. Codec ID : mp4a-40-2

  34. Duration : 2 h 7 min

  35. Duration_LastFrame : -11 ms

  36. Bit rate mode : Constant

  37. Bit rate : 224 kb/s

  38. Channel(s) : 6 channels

  39. Channel layout : C L R Ls Rs LFE

  40. Sampling rate : 48.0 kHz

  41. Frame rate : 46.875 FPS (1024 SPF)

  42. Compression mode : Lossy

  43. Stream size : 204 MiB (8%)

  44. Language : Chinese

  45. Default : Yes

  46. Alternate group : 1

  47. Encoded date : UTC 2022-05-03 17:21:44

  48. Tagged date : UTC 2022-05-03 17:21:44

复制代码

青春弑恋[国语音轨].Terrorizers.2021.CHINESE.1080p.WEBRip.x264 VXT 2.42GB  港台电影  第3张 青春弑恋[国语音轨].Terrorizers.2021.CHINESE.1080p.WEBRip.x264 VXT 2.42GB  港台电影  第4张 青春弑恋[国语音轨].Terrorizers.2021.CHINESE.1080p.WEBRip.x264 VXT 2.42GB  港台电影  第5张



文件下载


除非特别注明,本文『青春弑恋[国语音轨].Terrorizers.2021.CHINESE.1080p.WEBRip.x264-VXT 2.42GB』来源于互联网机器人自动抓取,非本站原创。 浮游电影网不对本文拥有版权,如有侵犯,请联系邮箱:fuyouu#yandex.com[#换成@]投诉。我们会在15个工作日内删除。 但烦请转载时请标明出处:“本文转载于『浮游电影网』,原文地址:https://www.fuyouu.com/21870.html

评论吧骚年!

发表你的见解   

昵称*

E-mail*(建议输入,以便收到博主回复的提示邮件)

验证码*

您可以使用eMule或eMule Mod(Windows)、aMule(Win、Linux、Mac)等软件下载eD2k链接。。
eMule收藏集(.emulecollection)文件是您选中的所有链接的列表文件。eMule可以直接下载它们。
按住SHIFT键选择可以选中多个选择框。
可用文件名和大小选择器来选择文件。
文件名选择器帮您根据文件名称或后缀来选择文件。不分大小写。
符号使用:
和:空格( )、+
不包含:-
或:|
转义:一对英文引号("");
匹配开头:^
匹配结尾:$
例如:
选中所有名称中包含有“eMule”或“0.49c”字眼,但不包含有“exe”字眼的:emule|0.49c -exe
选中所有名称的开头是“eMule”,结尾是“0.49c”的:^emule 0.49c$
选中所有名称中带有“eMule 0.49c”的(必须是“eMule 0.49c”,中间没有别的字符,不能是“eMule fake 0.49c”),需要转义:"emule 0.49c"
大小选择器帮您根据文件大小选择文件。