当前位置: 首页 >> 国产电影 >> 你是我的一束光[国语配音/中文字幕].New.Five.Golden.Flowers.2022.2160p.WEB-DL.H265.AAC-CTRLWEB 3.39GB >> 正文

你是我的一束光[国语配音/中文字幕].New.Five.Golden.Flowers.2022.2160p.WEB-DL.H265.AAC-CTRLWEB 3.39GB

2022年05月04日 12:13:26     电影发布:来源于网络     电影分类:国产电影     评论(0)    

◎译 名 你是我的一束光 / 照亮我人生 / New Five Golden Flowers

◎年 代 2022

◎产 地 中国大陆

◎类 别 剧情 / 爱情 / 音乐

◎语 言 汉语普通话

◎上映日期 2022-02-25(中国大陆)

◎IMDb链接 https://www.imdb.com/title//

◎豆瓣链接 https://movie.douban.com/subject/35657302/

◎片 长 106分钟

◎导 演 王强 Qiang Wang (id:1375271)

◎编 剧 刘恒 Heng Liu (id:1276115)

◎演 员 袁文康 Wenkang Yuan (id:1274820)

王西 Xi Wang (id:1414875)

邓超 Chao Deng (id:1274235)

李洛伊 Luoyi Li (id:1460883)

蒙亭宜 Tingyi Meng (id:1316715)

隋源 Drolma Suijun (id:1366847)

王可如 Keru Wang (id:1366845)

张小婉 Xiaowan Zhang (id:1320548)

刘桦 Hua Liu (id:1274276)

杨丽萍 Liping Yang (id:1301415)

单依纯 Yichun Shan (id:1447953)

杨金赐 Jinci Yang (id:1357013)

梁超 Chao Liang (id:1340702)

张典哲 dianzhe Zhang (id:1468589)

梁翘柏 Kubert Leung (id:1327173)

张和平 Heping Zhang (id:1399847)

俞白眉 Baimei Yu (id:1316617)

梁翘柏 Kubert Leung (id:1327173)

◎简 介

一位用生命守护群众的逆行者,一段不平凡而又揪心的爱情故事。职场、情场都失意的音乐人穆随心(袁文康 饰)驱车前往云南,偶遇单亲妈妈彭彭(王西 饰),二人感情逐渐升温,发现了彼此身上的亮光,也触摸到了内心最深处的秘密伤口,彭彭内心深处无法走出的有关孙雨桐(邓超 饰)的心结也因此慢慢解开······

  1. ##### MediaInfo ######

  2. General

  3. Complete name : New.Five.Golden.Flowers.2022.2160p.WEB-DL.H265.AAC-CTRLWEB.mp4

  4. Format : MPEG-4

  5. Format profile : Base Media

  6. Codec ID : isom (isom/iso2/mp41)

  7. File size : 3.39 GiB

  8. Duration : 1 h 45 min

  9. Overall bit rate : 4 580 kb/s

  10. Recorded date : 2022-05-03T06:42:54.8175424+08:00

  11. Writing application : Lavf58.32.104


  12. Video

  13. ID : 1

  14. Format : HEVC

  15. Format/Info : High Efficiency Video Coding

  16. Format profile : Main [email protected]@Main

  17. Codec ID : hev1

  18. Codec ID/Info : High Efficiency Video Coding

  19. Duration : 1 h 45 min

  20. Bit rate : 4 383 kb/s

  21. Width : 3 840 pixels

  22. Height : 1 512 pixels

  23. Display aspect ratio : 2.540

  24. Frame rate mode : Constant

  25. Frame rate : 24.000 FPS

  26. Color space : YUV

  27. Chroma subsampling : 4:2:0

  28. Bit depth : 10 bits

  29. Bits/(Pixel*Frame) : 0.031

  30. Stream size : 3.24 GiB (96%)

  31. Color range : Limited

  32. Color primaries : BT.709

  33. Transfer characteristics : BT.709

  34. Matrix coefficients : BT.709

  35. Codec configuration box : hvcC


  36. Audio

  37. ID : 2

  38. Format : AAC LC

  39. Format/Info : Advanced Audio Codec Low Complexity

  40. Codec ID : mp4a-40-2

  41. Duration : 1 h 45 min

  42. Bit rate mode : Constant

  43. Bit rate : 192 kb/s

  44. Channel(s) : 2 channels

  45. Channel layout : L R

  46. Sampling rate : 44.1 kHz

  47. Frame rate : 43.066 FPS (1024 SPF)

  48. Compression mode : Lossy

  49. Stream size : 144 MiB (4%)

  50. Default : Yes

  51. Alternate group : 1




复制代码



文件下载


除非特别注明,本文『你是我的一束光[国语配音/中文字幕].New.Five.Golden.Flowers.2022.2160p.WEB-DL.H265.AAC-CTRLWEB 3.39GB』来源于互联网机器人自动抓取,非本站原创。 浮游电影网不对本文拥有版权,如有侵犯,请联系邮箱:fuyouu#yandex.com[#换成@]投诉。我们会在15个工作日内删除。 但烦请转载时请标明出处:“本文转载于『浮游电影网』,原文地址:https://www.fuyouu.com/21866.html

评论吧骚年!

发表你的见解   

昵称*

E-mail*(建议输入,以便收到博主回复的提示邮件)

验证码*

您可以使用eMule或eMule Mod(Windows)、aMule(Win、Linux、Mac)等软件下载eD2k链接。。
eMule收藏集(.emulecollection)文件是您选中的所有链接的列表文件。eMule可以直接下载它们。
按住SHIFT键选择可以选中多个选择框。
可用文件名和大小选择器来选择文件。
文件名选择器帮您根据文件名称或后缀来选择文件。不分大小写。
符号使用:
和:空格( )、+
不包含:-
或:|
转义:一对英文引号("");
匹配开头:^
匹配结尾:$
例如:
选中所有名称中包含有“eMule”或“0.49c”字眼,但不包含有“exe”字眼的:emule|0.49c -exe
选中所有名称的开头是“eMule”,结尾是“0.49c”的:^emule 0.49c$
选中所有名称中带有“eMule 0.49c”的(必须是“eMule 0.49c”,中间没有别的字符,不能是“eMule fake 0.49c”),需要转义:"emule 0.49c"
大小选择器帮您根据文件大小选择文件。