当前位置: 首页 >> 国产电影 >> 消失的子弹[共2部合集][国粤英多音轨/简繁英字幕].The.Bullet.Vanishes.2012-2015.BluRay.1080p.2Audio.TrueHD.7.1.x265.10bit-A >> 正文

消失的子弹[共2部合集][国粤英多音轨/简繁英字幕].The.Bullet.Vanishes.2012-2015.BluRay.1080p.2Audio.TrueHD.7.1.x265.10bit-A

2022年05月04日 12:03:06     电影发布:来源于网络     电影分类:国产电影     评论(0)    

◎译 名 消失的凶手 / 消失的子弹2 / The Vanished Murderer

◎年 代 2015

◎产 地 中国大陆 / 中国香港

◎类 别 动作 / 悬疑 / 犯罪

◎语 言 粤语 / 汉语普通话

◎上映日期 2015-11-27(中国大陆)

◎IMDb链接 https://www.imdb.com/title/tt5190950/

◎豆瓣评分 5.0/10 (31127人评价)

◎豆瓣链接 https://movie.douban.com/subject/25778483/

◎片 长 120分钟

◎导 演 罗志良 Chi-Leung Law (id:1274275)

◎编 剧 杨倩玲 Sin Ling Yeung (id:1301472)

◎演 员 刘青云 Sean Lau (id:1007251)

林家栋 Ka Tung Lam (id:1050329)

李小璐 Xiaolu Li (id:1027770)

江一燕 Yiyan Jiang (id:1274286)

郭晓东 Xiaodong Guo (id:1274230)

凤小岳 Rhydian Vaughan (id:1274684)

孙佳君 Paulyn Sun (id:1050664)

海陆 Lu Hai (id:1313957)

李治源 Zhiyuan Li (id:1422046)

曹操 Jonathan Kos-Read (id:1274972)

刘洵 Shun Lau (id:1274304)

于小彤 Xiaotong Yu (id:1276052)

李栋 Dong Li (id:1454613)

冯远文 Yuen Man Fung (id:1369778)

李健威 Kin-wai Lee (id:1326655)

温皓 Hao Wen (id:1396699)

谷垣健治 Kenji Tanigaki (id:1335515)

◎简 介

银行相继倒闭,大批失业游民流落街头。一连串离奇自杀案件仿佛指引着松东路去探究隐藏在其背后更大的黑幕。十年前被掩埋的屠村案件被揭开、疑犯通过文字游戏传递着口令,接踵而至的案件掀起了巨大的恐慌,城中风云攒动,人人自危,富商、警察、教授、学生……每个人的言行举止都充满疑点,而每个人都在猜测下一个离奇自杀的会不会是自己?究竟是谁密谋了这一切,让这个原本美好的地方变成了绝望之城?寻找真相迫在眉睫……

  1. 合集文件列表:

  2. 1.The.Bullet.Vanishes.2012.BluRay.1080p.2Audio.DTS-HD.MA.7.1.x265.10bit-ALT.mkv 9.53GB

  3. 2.The.Vanished.Murderer.2015.BluRay.1080p.2Audio.TrueHD.7.1.x265.10bit-ALT.mkv 10.55GB


复制代码

  1. ##### MediaInfo ######

  2. General

  3. Unique ID : 282748658870448268740292832118029646032 (0xD4B7692FC8FC7606A80B8F7E228B78D0)

  4. Complete name : The.Bullet.Vanishes.2012.BluRay.1080p.2Audio.DTS-HD.MA.7.1.x265.10bit-ALT.mkv

  5. Format : Matroska

  6. Format version : Version 4

  7. File size : 9.53 GiB

  8. Duration : 1 h 47 min

  9. Overall bit rate mode : Variable

  10. Overall bit rate : 12.7 Mb/s

  11. Encoded date : UTC 2022-01-11 12:04:44

  12. Writing application : mkvmerge v49.0.0 ('Sick Of Losing Soulmates') 64-bit

  13. Writing library : libebml v1.4.0 + libmatroska v1.6.1


  14. Video

  15. ID : 1

  16. Format : HEVC

  17. Format/Info : High Efficiency Video Coding

  18. Format profile : Main [email protected]@High

  19. Codec ID : V_MPEGH/ISO/HEVC

  20. Duration : 1 h 47 min

  21. Bit rate : 9 163 kb/s

  22. Width : 1 920 pixels

  23. Height : 816 pixels

  24. Display aspect ratio : 2.35:1

  25. Frame rate mode : Constant

  26. Frame rate : 24.000 FPS

  27. Color space : YUV

  28. Chroma subsampling : 4:2:0

  29. Bit depth : 10 bits

  30. Bits/(Pixel*Frame) : 0.244

  31. Stream size : 6.90 GiB (72%)

  32. Title : HEVC, [email protected]@High, 24 fps @ 9162 kbps

  33. Writing library : x265 3.4+14-gd419c7152:[Windows][GCC 10.2.0][64 bit] 10bit

  34. Encoding settings : cpuid=533541111039 / frame-threads=4 / numa-pools=20 / wpp / pmode / pme / no-psnr / no-ssim / log-level=2 / input-csp=1 / input-res=1920x816 / interlace=0 / total-frames=155179 / level-idc=51 / high-tier=1 / uhd-bd=0 / ref=5 / no-allow-non-conformance / no-repeat-headers / annexb / no-aud / no-hrd / info / hash=0 / no-temporal-layers / open-gop / min-keyint=24 / keyint=240 / gop-lookahead=0 / bframes=6 / b-adapt=2 / b-pyramid / bframe-bias=0 / rc-lookahead=40 / lookahead-slices=0 / NTMzNTQ=uuDQuD2mJt9fsCf / scenecut=40 / hist-scenecut=0 / radl=0 / no-splice / no-intra-refresh / ctu=32 / min-cu-size=8 / no-rect / no-amp / max-tu-size=32 / tu-inter-depth=3 / tu-intra-depth=3 / limit-tu=4 / rdoq-level=2 / dynamic-rd=0.00 / no-ssim-rd / signhide / no-tskip / nr-intra=0 / nr-inter=0 / no-constrained-intra / no-strong-intra-smoothing / max-merge=4 / limit-refs=1 / limit-modes / me=3 / subme=4 / merange=25 / temporal-mvp / no-frame-dup / no-hme / weightp / weightb / no-analyze-src-pics / deblock=-3:-3 / no-sao / no-sao-non-deblock / rd=6 / selective-sao=0 / no-early-skip / rskip / no-fast-intra / no-tskip-fast / no-cu-lossless / b-intra / no-splitrd-skip / rdpenalty=0 / psy-rd=2.00 / psy-rdoq=1.00 / no-rd-refine / no-lossless / cbqpoffs=0 / crqpoffs=0 / rc=crf / crf=17.0 / qcomp=0.65 / qpstep=4 / stats-write=0 / stats-read=0 / vbv-maxrate=80000 / vbv-bufsize=80000 / vbv-init=0.9 / crf-max=0.0 / crf-min=0.0 / ipratio=1.40 / pbratio=1.30 / aq-mode=2 / aq-strength=0.85 / cutree / zone-count=0 / no-strict-cbr / qg-size=32 / no-rc-grain / qpmax=69 / qpmin=0 / no-const-vbv / sar=1 / overscan=0 / videoformat=5 / range=0 / colorprim=1 / transfer=1 / colormatrix=1 / chromaloc=0 / display-window=0 / cll=0,0 / min-luma=0 / max-luma=1023 / log2-max-poc-lsb=8 / vui-timing-info / vui-hrd-info / slices=1 / no-opt-qp-pps / no-opt-ref-list-length-pps / no-multi-pass-opt-rps / scenecut-bias=0.05 / hist-threshold=0.03 / no-opt-cu-delta-qp / no-aq-motion / no-hdr10 / no-hdr10-opt / no-dhdr10-opt / no-idr-recovery-sei / analysis-reuse-level=0 / analysis-save-reuse-level=0 / analysis-load-reuse-level=0 / scale-factor=0 / refine-intra=0 / refine-inter=0 / refine-mv=1 / refine-ctu-distortion=0 / no-limit-sao / ctu-info=0 / no-lowpass-dct / refine-analysis-type=0 / copy-pic=1 / max-ausize-factor=1.0 / no-dynamic-refine / no-single-sei / no-hevc-aq / no-svt / no-field / qp-adaptation-range=1.00 / no-scenecut-aware-qpconformance-window-offsets / right=0 / bottom=0 / NTMzNTQ= / decoder-max-rate=0

  35. Language : English

  36. Default : Yes

  37. Forced : No

  38. Color range : Limited

  39. Color primaries : BT.709

  40. Transfer characteristics : BT.709

  41. Matrix coefficients : BT.709


  42. Audio #1

  43. ID : 2

  44. Format : DTS XLL

  45. Format/Info : Digital Theater Systems

  46. Commercial name : DTS-HD Master Audio

  47. Codec ID : A_DTS

  48. Duration : 1 h 47 min

  49. Bit rate mode : Variable

  50. Bit rate : 2 644 kb/s

  51. Channel(s) : 8 channels

  52. Channel layout : C L R LFE Lb Rb Lss Rss

  53. Sampling rate : 48.0 kHz

  54. Frame rate : 93.750 FPS (512 SPF)

  55. Bit depth : 16 bits

  56. Compression mode : Lossless

  57. Stream size : 1.99 GiB (21%)

  58. Title : Cantonese DTS-HD Master Audio 7.1 @ 2644 kbps

  59. Language : Chinese

  60. Default : Yes

  61. Forced : No


  62. Audio #2

  63. ID : 3

  64. Format : E-AC-3

  65. Format/Info : Enhanced AC-3

  66. Commercial name : Dolby Digital Plus

  67. Format profile : Blu-ray Disc

  68. Codec ID : A_EAC3

  69. Duration : 1 h 47 min

  70. Bit rate mode : Constant

  71. Bit rate : 768 kb/s

  72. Channel(s) : 8 channels

  73. Channel layout : L R C LFE Ls Rs Lb Rb

  74. Sampling rate : 48.0 kHz

  75. Frame rate : 31.250 FPS (1536 SPF)

  76. Compression mode : Lossy

  77. Stream size : 592 MiB (6%)

  78. Title : Mandarin Dolby Digital Plus Audio 7.1 @ 768 kbps

  79. Language : Chinese

  80. Service kind : Complete Main

  81. Default : No

  82. Forced : No


  83. Text #1

  84. ID : 4

  85. Format : PGS

  86. Codec ID : S_HDMV/PGS

  87. Codec ID/Info : Picture based subtitle format used on BDs/HD-DVDs

  88. Duration : 1 h 40 min

  89. Bit rate : 28.3 kb/s

  90. Count of elements : 2262

  91. Stream size : 20.5 MiB (0%)

  92. Title : Cht/SUP 原盘繁体

  93. Language : Chinese

  94. Default : No

  95. Forced : No


  96. Text #2

  97. ID : 5

  98. Format : PGS

  99. Codec ID : S_HDMV/PGS

  100. Codec ID/Info : Picture based subtitle format used on BDs/HD-DVDs

  101. Duration : 1 h 40 min

  102. Bit rate : 27.7 kb/s

  103. Count of elements : 2262

  104. Stream size : 20.0 MiB (0%)

  105. Title : Chs/SUP 原盘简体

  106. Language : Chinese

  107. Default : Yes

  108. Forced : No


  109. Text #3

  110. ID : 6

  111. Format : PGS

  112. Codec ID : S_HDMV/PGS

  113. Codec ID/Info : Picture based subtitle format used on BDs/HD-DVDs

  114. Duration : 1 h 40 min

  115. Bit rate : 28.5 kb/s

  116. Count of elements : 2262

  117. Stream size : 20.6 MiB (0%)

  118. Title : Eng/SUP

  119. Language : English

  120. Default : No

  121. Forced : No


  122. Menu

  123. 00:00:00.000 : en:第 01 章

  124. 00:09:33.042 : en:第 02 章

  125. 00:19:02.167 : en:第 03 章

  126. 00:27:22.917 : en:第 04 章

  127. 00:37:22.292 : en:第 05 章

  128. 00:45:19.667 : en:第 06 章

  129. 00:52:35.042 : en:第 07 章

  130. 01:03:53.875 : en:第 08 章

  131. 01:11:45.833 : en:第 09 章

  132. 01:19:36.417 : en:第 10 章

  133. 01:32:04.250 : en:第 11 章

  134. 01:42:31.292 : en:第 12 章




复制代码



文件下载


除非特别注明,本文『消失的子弹[共2部合集][国粤英多音轨/简繁英字幕].The.Bullet.Vanishes.2012-2015.BluRay.1080p.2Audio.TrueHD.7.1.x265.10bit-A』来源于互联网机器人自动抓取,非本站原创。 浮游电影网不对本文拥有版权,如有侵犯,请联系邮箱:fuyouu#yandex.com[#换成@]投诉。我们会在15个工作日内删除。 但烦请转载时请标明出处:“本文转载于『浮游电影网』,原文地址:https://www.fuyouu.com/21858.html

评论吧骚年!

发表你的见解   

昵称*

E-mail*(建议输入,以便收到博主回复的提示邮件)

验证码*

您可以使用eMule或eMule Mod(Windows)、aMule(Win、Linux、Mac)等软件下载eD2k链接。。
eMule收藏集(.emulecollection)文件是您选中的所有链接的列表文件。eMule可以直接下载它们。
按住SHIFT键选择可以选中多个选择框。
可用文件名和大小选择器来选择文件。
文件名选择器帮您根据文件名称或后缀来选择文件。不分大小写。
符号使用:
和:空格( )、+
不包含:-
或:|
转义:一对英文引号("");
匹配开头:^
匹配结尾:$
例如:
选中所有名称中包含有“eMule”或“0.49c”字眼,但不包含有“exe”字眼的:emule|0.49c -exe
选中所有名称的开头是“eMule”,结尾是“0.49c”的:^emule 0.49c$
选中所有名称中带有“eMule 0.49c”的(必须是“eMule 0.49c”,中间没有别的字符,不能是“eMule fake 0.49c”),需要转义:"emule 0.49c"
大小选择器帮您根据文件大小选择文件。